<?xml version="1.0" standalone="no"?>
<!DOCTYPE svg PUBLIC "-//W3C//DTD SVG 1.1//EN" "http://www.w3.org/Graphics/SVG/1.1/DTD/svg11.dtd" >
<svg>
<metadata>
Created by FontForge 20090622 at Fri Oct 11 06:22:29 2019
 By deploy user
Font software Copyright 1990, 1991, 1998 Adobe Systems Incorporated. Typeface designs Copyright The Monotype Corporation. All rights reserved.
</metadata>
<defs>
<font id="GillSans" horiz-adv-x="500" >
  <font-face 
    font-family="Gill Sans"
    font-weight="400"
    font-stretch="normal"
    units-per-em="1000"
    panose-1="2 11 5 2 2 1 4 2 2 3"
    ascent="682"
    descent="-318"
    x-height="449"
    cap-height="682"
    bbox="-178 -230 1039 911"
    underline-thickness="50"
    underline-position="-50"
    unicode-range="U+0020-U+FB04"
  />
<missing-glyph 
d="M12 0v665h475v-665h-475zM88 618l162 -243l161 243h-323zM60 575v-484l40 61l80 120l41 61zM440 575l-162 -242l162 -243v485zM411 48l-161 242l-162 -242h323z" />
    <glyph glyph-name="fi" unicode="fi" horiz-adv-x="459" 
d="M149 482v-33h96v-61h-96v-388h-69v388h-72v61h72v30q0 109 45 160.5t120 51.5q76 0 112.5 -39.5t36.5 -96.5h-66q-5 40 -24.5 57.5t-58.5 17.5q-44 0 -70 -32t-26 -116zM394 449v-449h-69v449h69zM394 449v-449h-69v449h69zM394 449v-449h-69v449h69z" />
    <glyph glyph-name="fl" unicode="fl" horiz-adv-x="459" 
d="M288 678v-67q-27 11 -52 11q-46 0 -66.5 -30t-20.5 -99v-44h96v-61h-96v-388h-69v388h-72v61h72v42q0 60 14.5 102t39.5 62t49 28t52 8q27 0 53 -13zM394 682v-682h-69v682h69zM394 682v-682h-69v682h69zM394 682v-682h-69v682h69z" />
    <glyph glyph-name="f_f" unicode="ff" horiz-adv-x="517" 
d="M495 449v-61h-71v-388h-69v388h-200v-388h-69v388h-70v61h70v38v21q0 64 26 109q19 35 57.5 54.5t80.5 19.5q40 0 68 -15v-63q-42 13 -66 13q-32 0 -55 -15.5t-32 -40.5q-10 -26 -10 -83v-38h200v56q0 67 27 114q19 33 55 52.5t82 19.5q25 0 57 -9v-65q-38 8 -59 8
q-22 0 -45 -11.5t-35 -34.5q-13 -24 -13 -92v-38h71z" />
    <glyph glyph-name="f_f_i" unicode="ffi" horiz-adv-x="733" 
d="M155 487v-38h188v30q0 109 46.5 160.5t123.5 51.5q79 0 117 -39.5t38 -96.5h-67q-5 39 -25.5 56t-62.5 17q-47 0 -74 -31.5t-27 -114.5v-33h100v-61h-100v-388h-69v388h-188v-388h-69v388h-70v61h70v59q0 64 26 109q19 35 57.5 54.5t80.5 19.5q40 0 68 -15v-61
q-42 13 -66 13q-31 0 -54.5 -16t-32.5 -42q-10 -26 -10 -83zM669 449v-449h-69v449h69z" />
    <glyph glyph-name="f_f_l" unicode="ffl" horiz-adv-x="744" 
d="M155 487v-38h188v42q0 60 16 102t43.5 62t54 28t56.5 8q28 0 55 -12v-60q-26 9 -54 9q-54 0 -78 -32.5t-24 -102.5v-44h108v-61h-108v-388h-69v388h-188v-388h-69v388h-70v61h70v59q0 64 26 109q19 35 57.5 54.5t80.5 19.5q40 0 68 -15v-61q-42 13 -66 13
q-31 0 -54.5 -16t-32.5 -42q-10 -26 -10 -83zM679 682v-682h-69v682h69z" />
    <glyph glyph-name=".notdef" 
d="M12 0v665h475v-665h-475zM88 618l162 -243l161 243h-323zM60 575v-484l40 61l80 120l41 61zM440 575l-162 -242l162 -243v485zM411 48l-161 242l-162 -242h323z" />
    <glyph glyph-name=".null" horiz-adv-x="0" 
 />
    <glyph glyph-name="nonmarkingreturn" horiz-adv-x="333" 
 />
    <glyph glyph-name="space" unicode=" " horiz-adv-x="250" 
 />
    <glyph glyph-name="exclam" unicode="!" horiz-adv-x="240" 
d="M120 691q48 0 48 -126q0 -87 -15 -198t-33 -111t-33 111t-15 198q0 126 48 126zM120 99q22 0 38 -16t16 -38q0 -23 -16 -38.5t-38 -15.5t-38 15.5t-16 38.5t16 38.5t38 15.5z" />
    <glyph glyph-name="quotedbl" unicode="&#x22;" horiz-adv-x="323" 
d="M220 431l-20 135v116h69v-116l-20 -135h-29zM74 431l-20 135v116h69v-116l-20 -135h-29z" />
    <glyph glyph-name="numbersign" unicode="#" horiz-adv-x="667" 
d="M43 493h159l43 198h60l-43 -198h206l41 198h60l-41 -198h96v-60h-109l-37 -184h146v-60h-158l-43 -198h-60l43 198h-206l-42 -198h-60l42 198h-97v60h110l37 184h-147v60zM455 433h-205l-38 -184h206z" />
    <glyph glyph-name="dollar" unicode="$" horiz-adv-x="531" 
d="M462 598v-84q-71 62 -160 76v-229q98 -29 144.5 -78.5t46.5 -110.5q0 -22 -8.5 -47.5t-28 -54.5t-59.5 -51t-95 -28v-109h-65v109q-104 9 -194 75v89q51 -41 92 -63t102 -32v246q-36 11 -64.5 24t-59.5 34t-48.5 52.5t-17.5 70.5q0 58 43.5 108t146.5 63v33h65v-33
q99 -12 160 -60zM237 381v209q-48 -2 -82.5 -29.5t-34.5 -68.5q0 -44 29.5 -67t87.5 -44zM302 281v-220q53 5 84.5 34.5t31.5 69.5q0 46 -26 68t-90 48z" />
    <glyph glyph-name="percent" unicode="%" horiz-adv-x="698" 
d="M514 303q64 0 110 -45.5t46 -110.5t-46 -110.5t-110 -45.5t-110 45.5t-46 110.5t46 110.5t110 45.5zM514 49q40 0 69 28.5t29 69.5t-29 69.5t-69 28.5t-69 -28.5t-29 -69.5t29 -69.5t69 -28.5zM184 691q64 0 110 -45.5t46 -110.5t-46 -110.5t-110 -45.5t-110 45.5
t-46 110.5t46 110.5t110 45.5zM184 437q40 0 69 28.5t29 69.5t-29 69.5t-69 28.5t-69 -28.5t-29 -69.5t29 -69.5t69 -28.5zM630 682l-499 -682h-63l499 682h63z" />
    <glyph glyph-name="ampersand" unicode="&#x26;" horiz-adv-x="625" 
d="M479 153l138 -153h-96l-91 100l-12 -11.5l-17.5 -16.5t-21 -17.5t-26.5 -19t-30 -16.5t-35.5 -14.5t-39.5 -9.5t-45 -4q-69 0 -121 46t-52 117q0 62 44.5 114t120.5 90q-81 88 -81 159q0 66 46 109t120 43q73 0 116 -44t43 -102q0 -34 -13 -64t-38 -53t-41.5 -35.5
t-41.5 -27.5l125 -136q41 53 74 133h77q-35 -100 -102 -187zM259 394q109 50 109 125q0 33 -23.5 58.5t-66.5 25.5q-46 0 -69.5 -25.5t-23.5 -55.5q0 -57 74 -128zM382 153l-142 154q-45 -29 -73 -51t-39.5 -40t-14.5 -29t-3 -27q0 -42 28 -70t77 -28q35 0 68.5 15.5
t51 30.5t47.5 45z" />
    <glyph glyph-name="quotesingle" unicode="'" horiz-adv-x="198" 
d="M85 431l-20 135v116h69v-116l-20 -135h-29z" />
    <glyph glyph-name="parenleft" unicode="(" horiz-adv-x="333" 
d="M321 -230h-53q-36 41 -58.5 71t-59 91.5t-56 137.5t-19.5 161q0 68 15.5 133.5t34 110t51 94t48.5 69.5l44 53h53q-171 -198 -171 -460q0 -142 48.5 -261t122.5 -200z" />
    <glyph glyph-name="parenright" unicode=")" horiz-adv-x="333" 
d="M12 691h53q36 -41 58.5 -71t59 -91.5t56 -137.5t19.5 -161q0 -68 -15.5 -133.5t-34 -110t-51 -94t-48.5 -69.5l-44 -53h-53q171 198 171 460q0 142 -48.5 261t-122.5 200z" />
    <glyph glyph-name="asterisk" unicode="*" horiz-adv-x="375" 
d="M212 523l72 68q21 21 39 21q10 0 18 -8.5t8 -21.5q0 -14 -9 -22.5t-32 -16.5l-91 -33q4 -11 0 -19l86 -31q47 -16 47 -42q0 -9 -8 -19.5t-20 -10.5q-19 0 -48 29l-62 62q-8 -8 -17 -9l17 -91q4 -24 4 -41q0 -11 -7 -20.5t-21 -9.5q-30 0 -30 31q0 6 7 42l17 89
q-10 2 -16 9l-67 -62q-31 -28 -46 -28q-14 0 -21 10t-7 21q0 12 10 20.5t41 19.5l84 31q-2 4 -2 9q0 4 2 10l-96 36q-37 14 -37 36q0 13 8.5 22t19.5 9q16 0 38 -22l73 -68q6 8 16 8l-16 86q-6 29 -6 38q0 36 29 36q28 0 28 -33q0 -13 -5 -41l-17 -86q8 1 17 -8z" />
    <glyph glyph-name="plus" unicode="+" horiz-adv-x="667" 
d="M68 373h233v233h65v-233h233v-65h-233v-233h-65v233h-233v65z" />
    <glyph glyph-name="comma" unicode="," horiz-adv-x="240" 
d="M75 -121v16q41 41 35 90q-44 14 -44 56q0 26 15.5 42t34.5 16q28 0 43 -23t15 -58q0 -16 -3.5 -33t-13 -38.5t-31 -39.5t-51.5 -28z" />
    <glyph glyph-name="hyphen" unicode="-" horiz-adv-x="323" 
d="M282 259v-46h-241v46h241z" />
    <glyph glyph-name="period" unicode="." horiz-adv-x="240" 
d="M120 99q22 0 38 -15.5t16 -38.5t-16 -38.5t-38 -15.5t-38 15.5t-16 38.5t16 38.5t38 15.5z" />
    <glyph glyph-name="slash" unicode="/" horiz-adv-x="531" 
d="M407 691h67l-350 -700h-67z" />
    <glyph glyph-name="zero" unicode="0" 
d="M31 341q0 162 63.5 256t155.5 94t155.5 -94t63.5 -256t-63.5 -256t-155.5 -94t-155.5 94t-63.5 256zM394 341q0 117 -39 198.5t-105 81.5t-105 -81.5t-39 -198.5t39 -198.5t104 -81.5q67 0 106 81t39 199z" />
    <glyph glyph-name="one" unicode="1" 
d="M287 682v-682h-75v682h75z" />
    <glyph glyph-name="two" unicode="2" 
d="M180 71h288v-71h-433v4q92 97 175 207q68 91 97 152.5t29 118.5q0 69 -43 103.5t-93 34.5q-82 0 -153 -84v91q75 64 161 64q85 0 144 -57.5t59 -143.5q0 -49 -17.5 -100.5t-56.5 -110.5t-70 -100t-87 -108z" />
    <glyph glyph-name="three" unicode="3" 
d="M54 28v76q73 -42 153 -42q52 0 95.5 32t43.5 95q0 21 -7 41t-23.5 42t-51.5 35.5t-85 13.5v69q43 0 74.5 11.5t46 26t22.5 34.5t8.5 28.5t0.5 17.5q0 51 -37.5 82.5t-95.5 31.5q-69 0 -132 -39v71q64 37 137 37q89 0 146 -48t57 -129q0 -36 -11 -64.5t-31.5 -46.5
t-32.5 -25.5t-31 -16.5q121 -45 121 -169q0 -95 -65 -148t-147 -53q-84 0 -155 37z" />
    <glyph glyph-name="four" unicode="4" 
d="M384 691v-386h86v-61h-86v-244h-71v244h-300v30l343 417h28zM122 305h191v233z" />
    <glyph glyph-name="five" unicode="5" 
d="M395 682v-66h-226v-195q20 2 36 2q108 0 167.5 -61.5t59.5 -150.5q0 -93 -61.5 -156.5t-161.5 -63.5q-81 0 -163 44v79q85 -52 157 -52q68 0 111 44t43 105q0 60 -45 103t-127 43q-53 0 -85 -11v336h295z" />
    <glyph glyph-name="six" unicode="6" 
d="M331 691l44 -56q-98 -79 -130 -112q-74 -78 -101 -182q62 41 129 41q83 0 137 -57.5t54 -134.5q0 -89 -59 -144t-141 -55q-97 0 -154.5 67t-57.5 173q0 71 21.5 138t50.5 113t72.5 92t71 68.5t63.5 48.5zM129 261q-2 -22 -2 -42q0 -64 36 -111.5t100 -47.5q52 0 89 34
t37 91q0 52 -32.5 89.5t-99.5 37.5q-73 0 -128 -51z" />
    <glyph glyph-name="seven" unicode="7" 
d="M482 682l-310 -691l-66 29l267 591h-334v71h443z" />
    <glyph glyph-name="eight" unicode="8" 
d="M358 352q50 -30 74 -69t24 -98q0 -82 -58.5 -138t-147.5 -56q-87 0 -146.5 56.5t-59.5 137.5q0 103 99 167q-88 65 -88 152q0 78 58 132.5t137 54.5t137 -54.5t58 -132.5q0 -98 -87 -152zM250 383q50 0 85 35.5t35 84.5t-35 84t-85 35t-85 -35t-35 -84t35 -84.5t85 -35.5
zM250 312q-62 0 -96.5 -38t-34.5 -87q0 -54 37 -89.5t94 -35.5q59 0 95 38t36 89q0 56 -38 89.5t-93 33.5z" />
    <glyph glyph-name="nine" unicode="9" 
d="M169 -9l-44 56q98 79 130 112q74 78 101 182q-62 -41 -129 -41q-83 0 -137 57.5t-54 134.5q0 89 59 144t141 55q97 0 154.5 -67t57.5 -173q0 -71 -21.5 -138t-50.5 -113t-72.5 -92t-71 -68.5t-63.5 -48.5zM371 421q2 22 2 42q0 64 -36 111.5t-100 47.5q-52 0 -89 -34
t-37 -91q0 -52 32.5 -89.5t99.5 -37.5q73 0 128 51z" />
    <glyph glyph-name="colon" unicode=":" horiz-adv-x="240" 
d="M120 99q22 0 38 -15.5t16 -38.5t-16 -38.5t-38 -15.5t-38 15.5t-16 38.5t16 38.5t38 15.5zM120 458q22 0 38 -16t16 -38t-16 -38t-38 -16t-38 16t-16 38t16 38t38 16z" />
    <glyph glyph-name="semicolon" unicode=";" horiz-adv-x="240" 
d="M120 458q22 0 38 -16t16 -38t-16 -38t-38 -16t-38 16t-16 38t16 38t38 16zM75 -121v16q41 41 35 90q-44 14 -44 56q0 26 15.5 42t34.5 16q28 0 43 -23t15 -58q0 -16 -3.5 -33t-13 -38.5t-31 -39.5t-51.5 -28z" />
    <glyph glyph-name="semicolon" unicode="&#x37e;" horiz-adv-x="240" 
d="M120 458q22 0 38 -16t16 -38t-16 -38t-38 -16t-38 16t-16 38t16 38t38 16zM75 -121v16q41 41 35 90q-44 14 -44 56q0 26 15.5 42t34.5 16q28 0 43 -23t15 -58q0 -16 -3.5 -33t-13 -38.5t-31 -39.5t-51.5 -28z" />
    <glyph glyph-name="less" unicode="&#x3c;" horiz-adv-x="667" 
d="M68 370l531 223v-69l-444 -183l444 -183v-69l-531 223v58z" />
    <glyph glyph-name="equal" unicode="=" horiz-adv-x="667" 
d="M68 485h531v-65h-531v65zM68 261h531v-65h-531v65z" />
    <glyph glyph-name="greater" unicode="&#x3e;" horiz-adv-x="667" 
d="M599 312l-531 -223v69l444 183l-444 183v69l531 -223v-58z" />
    <glyph glyph-name="question" unicode="?" horiz-adv-x="313" 
d="M51 589h-5l44 93q22 9 47 9q54 0 92 -41.5t38 -102.5q0 -65 -64 -173l-16 -27q-39 -65 -49.5 -87t-10.5 -42q0 -14 3 -23l7 -19q0 -7 -8 -7q-6 0 -17.5 12.5t-22.5 35t-11 45.5q0 33 14 62.5t60 103.5q39 61 39 116q0 34 -20.5 57t-51.5 23q-41 0 -68 -35zM121 99
q23 0 38.5 -15.5t15.5 -38.5t-15.5 -38.5t-38.5 -15.5t-38.5 15.5t-15.5 38.5q0 22 16 38t38 16z" />
    <glyph glyph-name="at" unicode="@" horiz-adv-x="906" 
d="M608 491h75l-77 -360q-10 -40 -10 -58q0 -11 8.5 -18t19.5 -7q24 0 55.5 19.5t62.5 53t52 88.5t21 116q0 53 -19 106t-56.5 99.5t-102 75.5t-145.5 29q-107 0 -198.5 -46t-151 -140t-59.5 -219q0 -181 114.5 -279.5t290.5 -98.5q163 0 266 80q28 22 68 70h69
q-54 -95 -159 -150.5t-243 -55.5q-210 0 -336 116.5t-126 314.5q0 139 63.5 246.5t165.5 162.5t223 55q92 0 165 -30t114 -73.5t68 -97.5t36 -96.5t9 -76.5q0 -131 -86.5 -231.5t-187.5 -100.5q-89 0 -73 86q-74 -86 -160 -86q-77 0 -124.5 65t-47.5 144q0 72 31.5 143
t90.5 119t128 48q54 0 94.5 -29t55.5 -63zM566 305q0 62 -32.5 101.5t-85.5 39.5q-77 0 -129 -81.5t-52 -176.5q0 -61 34 -102.5t82 -41.5q73 0 128 84.5t55 176.5z" />
    <glyph glyph-name="A" unicode="A" horiz-adv-x="668" 
d="M355 686l311 -686h-78l-99 219h-312l-97 -219h-78l303 686h50zM458 285l-128 283l-124 -283h252z" />
    <glyph glyph-name="B" unicode="B" horiz-adv-x="552" 
d="M80 682h171q32 0 61.5 -5t58.5 -17.5t50 -32t34 -51t13 -71.5q0 -34 -11.5 -62t-29.5 -45t-32 -25.5t-28 -14.5q88 -17 124.5 -68t36.5 -107q0 -68 -52 -125.5t-149 -57.5h-247v682zM229 616h-74v-238h74q159 0 159 121q0 62 -38 89.5t-121 27.5zM274 312h-119v-246h121
q172 0 172 123q0 51 -40.5 87t-133.5 36z" />
    <glyph glyph-name="C" unicode="C" horiz-adv-x="694" 
d="M650 634v-81q-123 67 -237 67q-122 0 -204 -80t-82 -201t81 -199t202 -78q123 0 247 72v-81q-116 -62 -245 -62q-161 0 -263 101t-102 247q0 155 108 253.5t252 98.5q114 0 243 -57z" />
    <glyph glyph-name="D" unicode="D" horiz-adv-x="746" 
d="M80 682h211q85 0 156.5 -19t129 -58t90 -106.5t32.5 -157.5t-32.5 -157.5t-90 -106.5t-129 -58t-156.5 -19h-211v682zM155 616v-550h141q47 0 88 6t85.5 24.5t76.5 47.5t52.5 80t20.5 117t-20.5 117t-52.5 80t-76.5 47.5t-85.5 24.5t-88 6h-141z" />
    <glyph glyph-name="E" unicode="E" horiz-adv-x="499" 
d="M460 682v-66h-305v-239h296v-66h-296v-245h313v-66h-388v682h380z" />
    <glyph glyph-name="F" unicode="F" horiz-adv-x="458" 
d="M436 682v-66h-281v-224h267v-66h-267v-326h-75v682h356z" />
    <glyph glyph-name="G" unicode="G" horiz-adv-x="726" 
d="M651 633v-80q-113 70 -242 70q-122 0 -202 -81.5t-80 -200.5q0 -131 85.5 -207.5t195.5 -76.5q81 0 182 38v162h-138v66h213v-275q-130 -57 -250 -57q-167 0 -267.5 102.5t-100.5 246.5q0 148 102.5 249.5t264.5 101.5q46 0 92.5 -10t74 -20t70.5 -28z" />
    <glyph glyph-name="H" unicode="H" horiz-adv-x="729" 
d="M649 682v-682h-75v312h-419v-312h-75v682h75v-304h419v304h75z" />
    <glyph glyph-name="I" unicode="I" horiz-adv-x="240" 
d="M157 682v-682h-75v682h75z" />
    <glyph glyph-name="J" unicode="J" horiz-adv-x="234" 
d="M157 682v-672q0 -101 -27 -146q-47 -79 -146 -79q-15 0 -23 1l-13 72q16 -2 28 -2q30 0 50.5 10t31.5 23.5t16.5 38t6.5 43t1 48.5v663h75z" />
    <glyph glyph-name="K" unicode="K" horiz-adv-x="598" 
d="M556 682l-310 -331l363 -351h-101l-353 340v-340h-75v682h75v-326l308 326h93z" />
    <glyph glyph-name="L" unicode="L" horiz-adv-x="482" 
d="M155 682v-616h322v-66h-397v682h75z" />
    <glyph glyph-name="M" unicode="M" horiz-adv-x="789" 
d="M709 682v-682h-75v568l-235 -291h-8l-236 291v-568h-75v682h72l243 -299l242 299h72z" />
    <glyph glyph-name="N" unicode="N" horiz-adv-x="784" 
d="M704 682v-682h-64l-487 562v-562h-73v682h64l487 -562v562h73z" />
    <glyph glyph-name="O" unicode="O" horiz-adv-x="823" 
d="M407 -9q-151 0 -255.5 100t-104.5 250q0 68 25 130.5t70.5 111.5t115.5 78.5t153 29.5q162 0 263.5 -103t101.5 -247q0 -151 -106.5 -250.5t-262.5 -99.5zM406 62q123 0 206.5 79.5t83.5 201.5q0 109 -78 193t-207 84q-127 0 -205.5 -82.5t-78.5 -197.5q0 -121 83 -199.5
t196 -78.5z" />
    <glyph glyph-name="P" unicode="P" horiz-adv-x="516" 
d="M80 682h195q118 0 171.5 -53.5t53.5 -133.5t-53.5 -133.5t-171.5 -53.5h-120v-308h-75v682zM267 616h-112v-242h112q153 0 153 121t-153 121z" />
    <glyph glyph-name="Q" unicode="Q" horiz-adv-x="823" 
d="M748 -54l6 -5l-79 -82q-167 16 -322 136q-138 20 -222 118t-84 228q0 68 25 130.5t70.5 111.5t115.5 78.5t153 29.5q162 0 263.5 -103t101.5 -246q0 -130 -83 -226.5t-220 -119.5q49 -24 73.5 -35t63.5 -22.5t72 -11.5q31 0 66 19zM406 62q123 0 206.5 79.5t83.5 201.5
q0 109 -78 193t-207 84q-127 0 -205.5 -82.5t-78.5 -197.5q0 -121 83 -199.5t196 -78.5z" />
    <glyph glyph-name="R" unicode="R" horiz-adv-x="592" 
d="M80 682h174q120 0 172.5 -54.5t52.5 -128.5q0 -122 -122 -167q34 -22 65 -63.5t102 -153.5q28 -44 78 -115h-90l-65 103q-41 66 -88 126q-35 44 -69 63.5t-86 19.5h-49v-312h-75v682zM243 616h-88v-238h88q74 0 115 31t41 89q0 55 -40 86.5t-116 31.5z" />
    <glyph glyph-name="S" unicode="S" horiz-adv-x="458" 
d="M396 646v-85q-84 62 -155 62q-38 0 -65 -12.5t-39.5 -31t-17.5 -34t-5 -27.5q0 -25 10.5 -45t33 -37.5t39 -27t46.5 -24.5q105 -52 143 -92.5t38 -113.5q0 -89 -61.5 -138t-137.5 -49q-90 0 -179 62v92q86 -86 177 -86q64 0 95.5 37t31.5 77q0 39 -29 72t-124 78
q-84 40 -120.5 84.5t-36.5 102.5q0 79 58 130t144 51q78 0 154 -45z" />
    <glyph glyph-name="T" unicode="T" horiz-adv-x="594" 
d="M580 682v-66h-246v-616h-75v616h-246v66h567z" />
    <glyph glyph-name="U" unicode="U" horiz-adv-x="698" 
d="M638 682v-366q0 -72 -8 -114t-30 -79q-29 -51 -91 -91.5t-159 -40.5q-23 0 -48.5 3.5t-62.5 14.5t-72.5 37t-60.5 64q-27 41 -36.5 85t-9.5 121v366h75v-370q0 -75 12.5 -116.5t42.5 -73.5q60 -63 160 -63q72 0 120.5 32.5t70.5 77.5t22 143v370h75z" />
    <glyph glyph-name="V" unicode="V" horiz-adv-x="601" 
d="M599 682l-287 -689h-19l-291 689h76l224 -528l222 528h75z" />
    <glyph glyph-name="W" unicode="W" horiz-adv-x="1042" 
d="M1039 682l-274 -689h-18l-226 567l-226 -567h-19l-273 689h75l208 -518l208 518h55l208 -518l207 518h75z" />
    <glyph glyph-name="X" unicode="X" horiz-adv-x="698" 
d="M679 682l-282 -331l300 -351h-93l-254 297l-256 -297h-93l303 351l-284 331h93l237 -277l237 277h92z" />
    <glyph glyph-name="Y" unicode="Y" horiz-adv-x="599" 
d="M596 682l-260 -318v-364h-75v364l-258 318h91l204 -252l207 252h91z" />
    <glyph glyph-name="Z" unicode="Z" horiz-adv-x="646" 
d="M39 682h581v-9l-472 -607h474v-66h-609v7l474 609h-448v66z" />
    <glyph glyph-name="bracketleft" unicode="[" horiz-adv-x="323" 
d="M309 682v-64h-156v-775h156v-64h-229v903h229z" />
    <glyph glyph-name="backslash" unicode="\" horiz-adv-x="531" 
d="M124 691l350 -700h-67l-350 700h67z" />
    <glyph glyph-name="bracketright" unicode="]" horiz-adv-x="323" 
d="M14 -221v64h156v775h-156v64h229v-903h-229z" />
    <glyph glyph-name="asciicircum" unicode="^" horiz-adv-x="563" 
d="M129 342l-61 13l196 327h35l196 -327l-60 -13l-154 259z" />
    <glyph glyph-name="underscore" unicode="_" 
d="M-6 -75h512v-50h-512v50z" />
    <glyph glyph-name="grave" unicode="`" horiz-adv-x="333" 
d="M38 686h90l89 -157h-44z" />
    <glyph glyph-name="a" unicode="a" horiz-adv-x="438" 
d="M427 79v-47q-57 -41 -89 -41q-39 0 -49 51q-68 -51 -131 -51q-48 0 -82 32.5t-34 81.5q0 59 56.5 100t189.5 65v40q0 87 -89 87q-69 0 -140 -66v72q64 55 146 55q45 0 77 -14.5t47.5 -37.5t21.5 -45t6 -44v-246q0 -14 2.5 -19t9.5 -5q19 0 58 32zM288 89v136
q-177 -32 -177 -115q0 -36 25 -52.5t51 -16.5q50 0 101 48z" />
    <glyph glyph-name="b" unicode="b" horiz-adv-x="515" 
d="M65 25v657h69v-281q52 40 94 51q23 6 48 6q90 0 143.5 -66t53.5 -157q0 -111 -65.5 -177.5t-176.5 -66.5q-86 0 -166 34zM134 331v-261q51 -18 103 -18q71 0 118 50.5t47 126.5q0 72 -40.5 120t-99.5 48q-67 0 -128 -66z" />
    <glyph glyph-name="c" unicode="c" horiz-adv-x="429" 
d="M386 431v-74q-64 37 -123 37q-55 0 -91 -32t-47.5 -68t-11.5 -71q0 -66 39.5 -117t122.5 -51q56 0 120 29v-68q-66 -25 -127 -25q-106 0 -166 64.5t-60 165.5q0 108 62.5 172.5t158.5 64.5q58 0 123 -27z" />
    <glyph glyph-name="d" unicode="d" horiz-adv-x="513" 
d="M448 0h-158q-118 0 -183 58t-65 166q0 99 59.5 166.5t163.5 67.5q50 0 114 -27v251h69v-682zM379 61v307q-52 29 -103 29q-79 0 -121 -49t-42 -122q0 -79 48.5 -122t129.5 -43h88z" />
    <glyph glyph-name="e" unicode="e" horiz-adv-x="481" 
d="M446 236v-16h-333q0 -78 46.5 -123t114.5 -45q88 0 165 63v-70q-80 -54 -173 -54q-107 0 -165.5 68.5t-58.5 166.5q0 110 61.5 171t144.5 61q84 0 141 -62.5t57 -159.5zM117 270h258q-7 66 -44 96.5t-81 30.5q-46 0 -83.5 -31.5t-49.5 -95.5z" />
    <glyph glyph-name="f" unicode="f" horiz-adv-x="240" 
d="M311 677v-64q-32 12 -62 12q-52 0 -76 -32t-24 -100v-44h84v-61h-84v-388h-69v388h-72v61h72v42q0 102 45 151t112 49q27 0 74 -14z" />
    <glyph glyph-name="g" unicode="g" horiz-adv-x="427" 
d="M419 449v-55h-97q55 -49 55 -110q0 -58 -37 -95.5t-95 -51.5q-64 -15 -86.5 -25t-22.5 -30q0 -19 21.5 -29t76.5 -17q99 -13 141.5 -44t42.5 -87q0 -66 -58.5 -100.5t-145.5 -34.5q-97 0 -151 37.5t-54 93.5q0 37 27.5 69.5t94.5 44.5q-30 11 -45 28.5t-15 31.5
q0 15 6 26t20.5 19.5t24 12.5t31.5 12q-20 8 -35 17t-34 25.5t-29.5 43t-10.5 59.5q0 29 8.5 54.5t29.5 50.5t63.5 39.5t102.5 14.5h171zM314 289q0 42 -30 71.5t-73 29.5t-73.5 -29.5t-30.5 -71.5q0 -37 28.5 -68.5t75.5 -31.5t75 29t28 71zM353 -98q0 29 -33.5 52
t-113.5 23q-73 0 -102.5 -23t-29.5 -52q0 -77 142 -77q64 0 100.5 22t36.5 55z" />
    <glyph glyph-name="h" unicode="h" horiz-adv-x="492" 
d="M65 682h69v-301q58 77 141 77q75 0 118 -51t43 -139v-268h-69v262q0 61 -26 98t-82 37q-78 0 -125 -79v-318h-69v682z" />
    <glyph glyph-name="i" unicode="i" horiz-adv-x="199" 
d="M134 449v-449h-69v449h69zM100 632q19 0 32 -13t13 -32t-13 -32t-32 -13t-32 13t-13 32t13 32t32 13z" />
    <glyph glyph-name="j" unicode="j" horiz-adv-x="197" 
d="M134 449v-472q0 -89 -18 -130q-4 -10 -12 -22.5t-30.5 -30.5t-50.5 -24l-40 53q52 10 67 46.5t15 112.5v467h69zM100 632q19 0 32 -13t13 -32t-13 -32t-32 -13t-32 13t-13 32t13 32t32 13z" />
    <glyph glyph-name="k" unicode="k" horiz-adv-x="460" 
d="M134 682v-682h-69v682h69zM447 449l-218 -216l258 -233h-94l-254 233l223 216h85z" />
    <glyph glyph-name="l" unicode="l" horiz-adv-x="199" 
d="M134 682v-682h-69v682h69z" />
    <glyph glyph-name="m" unicode="m" horiz-adv-x="774" 
d="M134 449v-69q34 40 65.5 59t74.5 19q56 0 89 -30t48 -64q67 94 153 94q45 0 77 -18t47.5 -48t22.5 -60t7 -63v-269h-69v269q0 50 -21.5 89t-75.5 39q-33 0 -68 -20.5t-58 -60.5v-316h-69v267q0 130 -103 130q-65 0 -120 -77v-320h-69v449h69z" />
    <glyph glyph-name="n" unicode="n" horiz-adv-x="492" 
d="M65 449h69v-68q58 77 141 77q75 0 118 -51t43 -139v-268h-69v262q0 61 -26 98t-82 37q-78 0 -125 -79v-318h-69v449z" />
    <glyph glyph-name="o" unicode="o" horiz-adv-x="552" 
d="M275 458q97 0 165.5 -68t68.5 -165t-68.5 -165.5t-165.5 -68.5t-165 68.5t-68 165.5t68 165t165 68zM276 397q-70 0 -116.5 -50t-46.5 -122t46.5 -122.5t116.5 -50.5t116 50.5t46 122.5t-46 122t-116 50z" />
    <glyph glyph-name="p" unicode="p" horiz-adv-x="513" 
d="M65 449h158q118 0 183 -58t65 -166q0 -99 -59.5 -166.5t-163.5 -67.5q-50 0 -114 27v-239h-69v670zM134 388v-307q52 -29 103 -29q79 0 121 49t42 122q0 79 -48.5 122t-129.5 43h-88z" />
    <glyph glyph-name="q" unicode="q" horiz-adv-x="513" 
d="M448 449v-670h-69v239q-64 -27 -114 -27q-104 0 -163.5 67.5t-59.5 166.5q0 108 65 166t183 58h158zM379 388h-88q-81 0 -129.5 -43t-48.5 -122q0 -73 42 -122t121 -49q51 0 103 29v307z" />
    <glyph glyph-name="r" unicode="r" horiz-adv-x="363" 
d="M65 449h69v-99q36 56 75 83q38 25 68 25q43 0 107 -53l-37 -60q-48 42 -87 42q-30 0 -62 -24.5t-48 -60.5t-16 -108v-194h-69v449z" />
    <glyph glyph-name="s" unicode="s" horiz-adv-x="375" 
d="M319 420v-69q-75 46 -127 46q-34 0 -55 -17t-21 -41q0 -25 23.5 -42.5t104.5 -59.5q7 -3 10 -5q82 -44 82 -115q0 -44 -36.5 -85t-111.5 -41q-67 0 -144 41v71q84 -51 145 -51q29 0 52.5 16.5t23.5 43.5q0 29 -23.5 48t-76.5 44q-27 13 -43 22t-36 25.5t-29.5 37.5
t-9.5 48q0 47 37.5 84t106.5 37q61 0 128 -38z" />
    <glyph glyph-name="t" unicode="t" horiz-adv-x="313" 
d="M10 388v11l146 155v-105h135v-61h-135v-235q0 -26 1.5 -40.5t8 -29.5t20.5 -21.5t37 -6.5q34 0 91 27v-65q-55 -26 -105 -26q-63 0 -92.5 37.5t-29.5 96.5v263h-77z" />
    <glyph glyph-name="u" unicode="u" horiz-adv-x="492" 
d="M427 0h-69v68q-58 -77 -141 -77q-75 0 -118 51t-43 139v268h69v-262q0 -61 26 -98t82 -37q78 0 125 79v318h69v-449z" />
    <glyph glyph-name="v" unicode="v" horiz-adv-x="434" 
d="M432 449l-196 -458h-30l-204 458h73l146 -327l139 327h72z" />
    <glyph glyph-name="w" unicode="w" horiz-adv-x="718" 
d="M716 449l-196 -458h-26l-135 339l-135 -339h-26l-196 458h71l136 -319l128 319h45l126 -319l136 319h72z" />
    <glyph glyph-name="x" unicode="x" horiz-adv-x="472" 
d="M232 178l-148 -178h-83l188 228l-188 221h87l144 -169l141 169h84l-182 -219l196 -230h-87z" />
    <glyph glyph-name="y" unicode="y" horiz-adv-x="432" 
d="M430 449l-327 -679h-74l155 322l-182 357h75l143 -283l135 283h75z" />
    <glyph glyph-name="z" unicode="z" horiz-adv-x="406" 
d="M24 449h371v-9l-266 -376h266v-64h-384v8l266 377h-253v64z" />
    <glyph glyph-name="braceleft" unicode="{" horiz-adv-x="333" 
d="M38 195v71q24 0 41 5.5t28 21t17 29t8.5 43t3 49t0.5 61.5v11q0 65 8.5 104t30 59.5t49 26.5t74.5 6v-64q-63 0 -78 -22t-15 -114q0 -120 -17 -171t-83 -80q66 -29 83 -80.5t17 -171.5q0 -92 15 -114t78 -22v-64q-47 0 -74.5 6t-49 26.5t-30 59.5t-8.5 104v11
q0 42 -0.5 61.5t-3 49t-8.5 43t-17 29t-28 21t-41 5.5z" />
    <glyph glyph-name="bar" unicode="|" horiz-adv-x="223" 
d="M79 691h65v-921h-65v921z" />
    <glyph glyph-name="braceright" unicode="}" horiz-adv-x="333" 
d="M295 195q-24 0 -41 -5.5t-28 -21t-17 -29t-8.5 -43t-3 -49t-0.5 -61.5v-11q0 -65 -8.5 -104t-30 -59.5t-49 -26.5t-74.5 -6v64q63 0 78 22t15 114q0 120 17 171.5t83 80.5q-66 29 -83 80t-17 171q0 92 -15 114t-78 22v64q47 0 74.5 -6t49 -26.5t30 -59.5t8.5 -104v-11
q0 -42 0.5 -61.5t3 -49t8.5 -43t17 -29t28 -21t41 -5.5v-71z" />
    <glyph glyph-name="asciitilde" unicode="~" horiz-adv-x="667" 
d="M68 281v70q82 61 144 61q47 0 144 -46q68 -32 101 -32q59 0 142 67v-70q-78 -61 -140 -61q-31 0 -60.5 10t-95.5 40q-59 28 -91 28q-19 0 -38 -4.5t-36 -14t-27.5 -16.5t-25.5 -18.5t-17 -13.5z" />
    <glyph glyph-name="uni00A0" unicode="&#xa0;" horiz-adv-x="250" 
 />
    <glyph glyph-name="exclamdown" unicode="&#xa1;" horiz-adv-x="240" 
d="M120 -230q-48 0 -48 126q0 87 15 198t33 111t33 -111t15 -198q0 -126 -48 -126zM120 362q-22 0 -38 16t-16 38t16 38t38 16t38 -16t16 -38t-16 -38t-38 -16z" />
    <glyph glyph-name="cent" unicode="&#xa2;" horiz-adv-x="429" 
d="M386 431v-74q-31 18 -63 28l-114 -318q31 -12 66 -12q47 0 120 29v-68q-66 -25 -127 -25q-45 0 -82 13l-69 -193h-44l75 209q-58 32 -82 88.5t-24 112.5q0 117 66.5 177t154.5 60q19 0 40 -3l63 174h44l-65 -183q9 -3 41 -15zM172 88l109 305q-81 8 -124.5 -45
t-43.5 -125q0 -88 59 -135z" />
    <glyph glyph-name="sterling" unicode="&#xa3;" horiz-adv-x="542" 
d="M480 685l39 -76q-28 11 -63 11q-39 0 -73.5 -21.5t-57 -55.5t-37 -65t-22.5 -61l-15 -53h90v-69h-110l-59 -220q50 5 75 5q47 0 99 -10q48 -8 73 -8q61 0 100 23v-74q-43 -20 -92 -20q-22 0 -95 11q-42 7 -106 7q-90 0 -149 -18l83 304h-78v69h96q15 47 24.5 72l28 71
t37 72.5t44.5 55.5t58 42.5t69 13.5q19 0 41 -6z" />
    <glyph glyph-name="currency" unicode="&#xa4;" horiz-adv-x="552" 
d="M467 576l44 -45l-66 -65q42 -58 42 -125q0 -61 -42 -126l66 -64l-44 -45l-66 65q-57 -41 -126 -41q-70 0 -125 41l-65 -65l-44 45l64 64q-41 63 -41 126t41 125l-64 65l44 45l65 -66q61 42 126 42q63 0 125 -42zM275 489q-61 0 -104.5 -43.5t-43.5 -104.5t43.5 -104.5
t104.5 -43.5t104.5 43.5t43.5 104.5t-43.5 104.5t-104.5 43.5z" />
    <glyph glyph-name="yen" unicode="&#xa5;" horiz-adv-x="552" 
d="M15 682h78l186 -335l178 335h80l-195 -335h179v-58h-207v-74h207v-58h-207v-157h-75v157h-209v58h209v74h-209v58h181z" />
    <glyph glyph-name="brokenbar" unicode="&#xa6;" horiz-adv-x="223" 
d="M79 153h65v-383h-65v383zM79 691h65v-383h-65v383z" />
    <glyph glyph-name="section" unicode="&#xa7;" horiz-adv-x="406" 
d="M175 56l-64 66q-44 46 -64 80t-20 82q0 91 79 155q-38 54 -38 108q0 60 38.5 102t110.5 42q59 0 91.5 -27.5t32.5 -59.5q0 -22 -13 -32t-28 -10q-18 0 -27.5 11t-19.5 33q-14 31 -45 31q-34 0 -55 -22t-21 -54q0 -59 63 -120l102 -98q83 -80 83 -162q0 -42 -20.5 -77.5
t-63.5 -76.5q42 -57 42 -116q0 -63 -44.5 -102t-107.5 -39q-52 0 -90 25.5t-38 63.5q0 18 12.5 30t31.5 12q18 0 26.5 -8.5t22.5 -36.5q17 -32 48 -32q33 0 54 24.5t21 54.5q0 34 -21 64t-78 89zM254 291l-109 108q-49 -61 -49 -110t39 -90l123 -132q31 39 42 61t11 50
q0 56 -57 113z" />
    <glyph glyph-name="dieresis" unicode="&#xa8;" horiz-adv-x="333" 
d="M74 652q19 0 32 -13t13 -32t-13 -32t-32 -13t-32 13t-13 32t13 32t32 13zM259 652q19 0 32 -13t13 -32t-13 -32t-32 -13t-32 13t-13 32t13 32t32 13z" />
    <glyph glyph-name="dieresis" unicode="&#x308;" horiz-adv-x="333" 
d="M74 652q19 0 32 -13t13 -32t-13 -32t-32 -13t-32 13t-13 32t13 32t32 13zM259 652q19 0 32 -13t13 -32t-13 -32t-32 -13t-32 13t-13 32t13 32t32 13z" />
    <glyph glyph-name="copyright" unicode="&#xa9;" horiz-adv-x="769" 
d="M755 320q0 -152 -108 -261t-262 -109t-262.5 108.5t-108.5 261.5q0 154 108.5 262.5t262.5 108.5t262 -109.5t108 -261.5zM702 320q0 131 -92.5 224.5t-224.5 93.5q-131 0 -224.5 -93t-93.5 -225q0 -131 93 -224t225 -93t224.5 93.5t92.5 223.5zM551 414l-53 -14
q-32 78 -110 78q-60 0 -96.5 -43t-36.5 -110q0 -72 33 -119t94 -47q91 0 123 97l52 -17q-22 -67 -69 -99q-45 -32 -103 -32q-86 0 -137.5 61t-51.5 151q0 88 51 146.5t142 58.5q114 0 162 -111z" />
    <glyph glyph-name="ordfeminine" unicode="&#xaa;" horiz-adv-x="281" 
d="M276 474v-39q-36 -26 -65 -26q-24 0 -35 26q-35 -26 -80 -26q-35 0 -57 21.5t-22 49.5q0 34 32.5 58t125.5 42v21q0 13 -2 21.5t-14 17.5t-34 9q-44 0 -96 -45v52q44 35 99 35q30 0 51 -8.5t31 -18.5t15 -27.5t5.5 -25t0.5 -21.5v-117q0 -23 10 -23q8 0 35 24zM175 471
v76q-102 -17 -102 -64q0 -19 13.5 -27.5t30.5 -8.5q34 0 58 24z" />
    <glyph glyph-name="guillemotleft" unicode="&#xab;" 
d="M260 0h-68l-168 224l168 225h68l-168 -225zM460 0h-68l-168 224l168 225h68l-168 -225z" />
    <glyph glyph-name="logicalnot" unicode="&#xac;" horiz-adv-x="667" 
d="M68 485h531v-289h-65v224h-466v65z" />
    <glyph glyph-name="uni00AD" unicode="&#xad;" horiz-adv-x="323" 
d="M282 259v-46h-241v46h241z" />
    <glyph glyph-name="registered" unicode="&#xae;" horiz-adv-x="769" 
d="M755 320q0 -152 -108 -261t-262 -109t-262.5 108.5t-108.5 261.5q0 154 108.5 262.5t262.5 108.5t262 -109t108 -262zM702 320q0 131 -92.5 224.5t-224.5 93.5t-225 -93.5t-93 -224.5t93 -224t225 -93t224.5 93.5t92.5 223.5zM228 513h159q43 0 73 -11t44 -29t19.5 -34
t5.5 -32q0 -96 -115 -112q10 -3 18.5 -7.5t16.5 -12l13 -12t12 -15l9 -13.5t9 -15.5t8 -13.5l50 -88h-68l-56 101q0 1 -3 6.5t-5.5 9.5t-7.5 11t-10 12t-13 10.5t-16.5 9.5t-20 6.5t-23.5 2.5h-42v-169h-57v395zM285 466v-131h71q64 0 87 17t23 50t-25.5 48.5t-83.5 15.5
h-72z" />
    <glyph glyph-name="macron" unicode="&#xaf;" horiz-adv-x="333" 
d="M316 639v-63h-299v63h299z" />
    <glyph glyph-name="degree" unicode="&#xb0;" horiz-adv-x="396" 
d="M60 553q0 57 40.5 97.5t97.5 40.5t97.5 -40t40.5 -98q0 -57 -40.5 -97.5t-97.5 -40.5t-97.5 40t-40.5 98zM107 553q0 -37 26.5 -64t64.5 -27t64.5 26.5t26.5 64.5t-26.5 64.5t-64.5 26.5t-64.5 -26.5t-26.5 -64.5z" />
    <glyph glyph-name="plusminus" unicode="&#xb1;" horiz-adv-x="667" 
d="M68 65h531v-65h-531v65zM68 456h233v233h65v-233h233v-65h-233v-233h-65v233h-233v65z" />
    <glyph glyph-name="two.superior" unicode="&#xb2;" horiz-adv-x="323" 
d="M131 315h167v-42h-270v4q69 69 115 119q30 33 45.5 60t17.5 37.5t2 26.5q0 29 -19.5 49.5t-55.5 20.5q-51 0 -96 -53v60q1 0 8.5 5.5t11.5 8t14 7.5t19 7.5t22 4.5t27 2q64 0 94.5 -33t30.5 -73t-30.5 -88t-102.5 -123z" />
    <glyph glyph-name="three.superior" unicode="&#xb3;" horiz-adv-x="323" 
d="M40 288v48q49 -26 95 -26q35 0 54.5 17.5t19.5 44.5q0 64 -95 64v42q89 0 89 57q0 55 -72 55q-40 0 -84 -24v45q37 21 86 21q69 0 97.5 -29t28.5 -66q0 -57 -58 -77q34 -9 49 -35t15 -51q0 -52 -40.5 -79t-86.5 -27q-50 0 -98 20z" />
    <glyph glyph-name="acute" unicode="&#xb4;" horiz-adv-x="333" 
d="M295 686l-134 -157h-44l88 157h90z" />
    <glyph glyph-name="mu" unicode="&#xb5;" horiz-adv-x="552" 
d="M463 449v-449h-66v54q-44 -63 -121 -63q-71 0 -117 59v-271h-70v670h69v-230q0 -54 10.5 -90t29 -52t36.5 -22t41 -6t41.5 6t37.5 22t29.5 52t10.5 90v230h69z" />
    <glyph glyph-name="paragraph" unicode="&#xb6;" horiz-adv-x="583" 
d="M341 644v-872h-50v441q-122 0 -197.5 60.5t-75.5 172.5q0 121 72 178.5t201 57.5h277v-38h-84v-872h-50v872h-93z" />
    <glyph glyph-name="periodcentered" unicode="&#xb7;" horiz-adv-x="240" 
d="M120 395q22 0 38 -15.5t16 -38.5t-16 -38.5t-38 -15.5t-38 15.5t-16 38.5t16 38.5t38 15.5z" />
    <glyph glyph-name="periodcentered" unicode="&#x22c5;" horiz-adv-x="240" 
d="M120 395q22 0 38 -15.5t16 -38.5t-16 -38.5t-38 -15.5t-38 15.5t-16 38.5t16 38.5t38 15.5z" />
    <glyph glyph-name="periodcentered" unicode="&#x387;" horiz-adv-x="240" 
d="M120 395q22 0 38 -15.5t16 -38.5t-16 -38.5t-38 -15.5t-38 15.5t-16 38.5t16 38.5t38 15.5z" />
    <glyph glyph-name="cedilla" unicode="&#xb8;" horiz-adv-x="333" 
d="M227 8l-9 -34q59 -15 59 -64q0 -30 -25 -57q-27 -26 -88 -26q-17 0 -37 4l3 43h5q5 -1 11 -1h14.5t16.5 1t16.5 3.5t14 6t9.5 9t4 13.5q0 37 -60 32l23 70h43z" />
    <glyph glyph-name="one.superior" unicode="&#xb9;" horiz-adv-x="323" 
d="M190 627v-354h-56v354h56z" />
    <glyph glyph-name="ordmasculine" unicode="&#xba;" horiz-adv-x="365" 
d="M338 550q0 -61 -44.5 -101.5t-111.5 -40.5t-111 40.5t-44 101.5t44 101t111 40t111.5 -40t44.5 -101zM182 649q-41 0 -70 -29t-29 -70t29 -70.5t70 -29.5t70.5 29.5t29.5 70.5t-29.5 70t-70.5 29z" />
    <glyph glyph-name="guillemotright" unicode="&#xbb;" 
d="M240 449h68l168 -225l-168 -224h-68l168 224zM40 449h68l168 -225l-168 -224h-68l168 224z" />
    <glyph glyph-name="onequarter" unicode="&#xbc;" horiz-adv-x="833" 
d="M712 359v-202h50v-38h-50v-119h-56v119h-158v24l193 216h21zM560 157h96v108zM223 686v-354h-56v354h56zM689 691l-491 -718h-53l490 718h54z" />
    <glyph glyph-name="onehalf" unicode="&#xbd;" horiz-adv-x="833" 
d="M223 686v-354h-56v354h56zM689 691l-491 -718h-53l490 718h54zM627 42h167v-42h-270v4q69 69 115 119q30 33 45.5 60t17.5 37.5t2 26.5q0 29 -19.5 49.5t-55.5 20.5q-51 0 -96 -53v60q1 0 8.5 5.5t11.5 8t14 7.5t19 7.5t22 4.5t27 2q64 0 94.5 -33t30.5 -73t-30.5 -88
t-102.5 -123z" />
    <glyph glyph-name="threequarters" unicode="&#xbe;" horiz-adv-x="833" 
d="M712 359v-202h50v-38h-50v-119h-56v119h-158v24l193 216h21zM560 157h96v108zM64 347v48q49 -26 95 -26q35 0 54.5 17.5t19.5 44.5q0 64 -95 64v42q89 0 89 57q0 55 -72 55q-40 0 -84 -24v45q37 21 86 21q69 0 97.5 -29t28.5 -66q0 -57 -58 -77q34 -9 49 -35t15 -51
q0 -52 -40.5 -79t-86.5 -27q-50 0 -98 20zM689 691l-491 -718h-53l490 718h54z" />
    <glyph glyph-name="questiondown" unicode="&#xbf;" horiz-adv-x="313" 
d="M262 -128h5l-44 -93q-22 -9 -47 -9q-54 0 -92 41.5t-38 102.5q0 65 64 173l16 27q39 65 49.5 87t10.5 42q0 14 -3 23l-7 19q0 7 8 7q6 0 17.5 -12.5t22.5 -35t11 -45.5q0 -33 -14 -62.5t-60 -103.5q-39 -61 -39 -116q0 -34 20.5 -57t51.5 -23q41 0 68 35zM192 362
q-22 0 -38 16t-16 38t16 38t38 16t38 -16t16 -38t-16 -38t-38 -16z" />
    <glyph glyph-name="Agrave" unicode="&#xc0;" horiz-adv-x="668" 
d="M355 686l311 -686h-78l-99 219h-312l-97 -219h-78l303 686h50zM458 285l-128 283l-124 -283h252zM221 885h90l89 -157h-44z" />
    <glyph glyph-name="Aacute" unicode="&#xc1;" horiz-adv-x="668" 
d="M355 686l311 -686h-78l-99 219h-312l-97 -219h-78l303 686h50zM458 285l-128 283l-124 -283h252zM448 885l-134 -157h-44l88 157h90z" />
    <glyph glyph-name="Acircumflex" unicode="&#xc2;" horiz-adv-x="668" 
d="M355 686l311 -686h-78l-99 219h-312l-97 -219h-78l303 686h50zM458 285l-128 283l-124 -283h252zM373 885l100 -157h-47l-92 98l-92 -98h-46l100 157h77z" />
    <glyph glyph-name="Atilde" unicode="&#xc3;" horiz-adv-x="668" 
d="M355 686l311 -686h-78l-99 219h-312l-97 -219h-78l303 686h50zM458 285l-128 283l-124 -283h252zM215 753h-36l3 23.5t7 26t13.5 28t22.5 18.5t35 9q33 0 89 -24q45 -19 66 -19q15 0 24 9t11 16t4 20h36q0 -52 -25 -79.5t-57 -27.5q-27 0 -72 18q-64 25 -82 25
q-32 0 -39 -43z" />
    <glyph glyph-name="Adieresis" unicode="&#xc4;" horiz-adv-x="668" 
d="M355 686l311 -686h-78l-99 219h-312l-97 -219h-78l303 686h50zM458 285l-128 283l-124 -283h252zM242 851q19 0 32 -13t13 -32t-13 -32t-32 -13t-32 13t-13 32t13 32t32 13zM427 851q19 0 32 -13t13 -32t-13 -32t-32 -13t-32 13t-13 32t13 32t32 13z" />
    <glyph glyph-name="Aring" unicode="&#xc5;" horiz-adv-x="668" 
d="M355 686l311 -686h-78l-99 219h-312l-97 -219h-78l303 686h50zM458 285l-128 283l-124 -283h252zM334 724q-39 0 -66 27t-27 66t27 66.5t66 27.5t66.5 -27.5t27.5 -66.5t-27.5 -66t-66.5 -27zM334 767q21 0 36 14.5t15 35.5t-15 36t-36 15t-35.5 -15t-14.5 -36
t14.5 -35.5t35.5 -14.5z" />
    <glyph glyph-name="AE" unicode="&#xc6;" horiz-adv-x="884" 
d="M842 682v-66h-300v-239h293v-66h-293v-245h310v-66h-385v311h-193l-189 -311h-83l415 682h425zM467 377v254l-153 -254h153z" />
    <glyph glyph-name="Ccedilla" unicode="&#xc7;" horiz-adv-x="694" 
d="M650 634v-81q-123 67 -237 67q-122 0 -204 -80t-82 -201t81 -199t202 -78q123 0 247 72v-81q-110 -59 -236 -62l-4 -16q44 -6 63 -27.5t19 -48.5q0 -40 -41.5 -67.5t-107.5 -27.5q-36 0 -67 4l3 51q22 -3 49 -3q89 0 89 38q0 36 -87 36l21 64q-140 17 -225.5 114.5
t-85.5 230.5q0 155 108 253.5t252 98.5q114 0 243 -57z" />
    <glyph glyph-name="Egrave" unicode="&#xc8;" horiz-adv-x="499" 
d="M460 682v-66h-305v-239h296v-66h-296v-245h313v-66h-388v682h380zM141 885h90l89 -157h-44z" />
    <glyph glyph-name="Eacute" unicode="&#xc9;" horiz-adv-x="499" 
d="M460 682v-66h-305v-239h296v-66h-296v-245h313v-66h-388v682h380zM398 885l-134 -157h-44l88 157h90z" />
    <glyph glyph-name="Ecircumflex" unicode="&#xca;" horiz-adv-x="499" 
d="M460 682v-66h-305v-239h296v-66h-296v-245h313v-66h-388v682h380zM308 885l100 -157h-47l-92 98l-92 -98h-46l100 157h77z" />
    <glyph glyph-name="Edieresis" unicode="&#xcb;" horiz-adv-x="499" 
d="M460 682v-66h-305v-239h296v-66h-296v-245h313v-66h-388v682h380zM177 851q19 0 32 -13t13 -32t-13 -32t-32 -13t-32 13t-13 32t13 32t32 13zM362 851q19 0 32 -13t13 -32t-13 -32t-32 -13t-32 13t-13 32t13 32t32 13z" />
    <glyph glyph-name="Igrave" unicode="&#xcc;" horiz-adv-x="240" 
d="M157 682v-682h-75v682h75zM7 885h90l89 -157h-44z" />
    <glyph glyph-name="Iacute" unicode="&#xcd;" horiz-adv-x="240" 
d="M157 682v-682h-75v682h75zM249 885l-134 -157h-44l88 157h90z" />
    <glyph glyph-name="Icircumflex" unicode="&#xce;" horiz-adv-x="240" 
d="M157 682v-682h-75v682h75zM159 885l100 -157h-47l-92 98l-92 -98h-46l100 157h77z" />
    <glyph glyph-name="Idieresis" unicode="&#xcf;" horiz-adv-x="240" 
d="M157 682v-682h-75v682h75zM28 851q19 0 32 -13t13 -32t-13 -32t-32 -13t-32 13t-13 32t13 32t32 13zM213 851q19 0 32 -13t13 -32t-13 -32t-32 -13t-32 13t-13 32t13 32t32 13z" />
    <glyph glyph-name="Eth" unicode="&#xd0;" horiz-adv-x="746" 
d="M80 682h211q85 0 156.5 -19t129 -58t90 -106.5t32.5 -157.5t-32.5 -157.5t-90 -106.5t-129 -58t-156.5 -19h-211v314h-91v54h91v314zM155 616v-248h207v-54h-207v-248h141q47 0 88 6t85.5 24.5t76.5 47.5t52.5 80t20.5 117t-20.5 117t-52.5 80t-76.5 47.5t-85.5 24.5
t-88 6h-141z" />
    <glyph glyph-name="Ntilde" unicode="&#xd1;" horiz-adv-x="784" 
d="M704 682v-682h-64l-487 562v-562h-73v682h64l487 -562v562h73zM273 753h-36l3 23.5t7 26t13.5 28t22.5 18.5t35 9q33 0 89 -24q45 -19 66 -19q15 0 24 9t11 16t4 20h36q0 -52 -25 -79.5t-57 -27.5q-27 0 -72 18q-64 25 -82 25q-32 0 -39 -43z" />
    <glyph glyph-name="Ograve" unicode="&#xd2;" horiz-adv-x="823" 
d="M407 -9q-151 0 -255.5 100t-104.5 250q0 68 25 130.5t70.5 111.5t115.5 78.5t153 29.5q162 0 263.5 -103t101.5 -247q0 -151 -106.5 -250.5t-262.5 -99.5zM406 62q123 0 206.5 79.5t83.5 201.5q0 109 -78 193t-207 84q-127 0 -205.5 -82.5t-78.5 -197.5q0 -121 83 -199.5
t196 -78.5zM298 885h90l89 -157h-44z" />
    <glyph glyph-name="Oacute" unicode="&#xd3;" horiz-adv-x="823" 
d="M407 -9q-151 0 -255.5 100t-104.5 250q0 68 25 130.5t70.5 111.5t115.5 78.5t153 29.5q162 0 263.5 -103t101.5 -247q0 -151 -106.5 -250.5t-262.5 -99.5zM406 62q123 0 206.5 79.5t83.5 201.5q0 109 -78 193t-207 84q-127 0 -205.5 -82.5t-78.5 -197.5q0 -121 83 -199.5
t196 -78.5zM540 885l-134 -157h-44l88 157h90z" />
    <glyph glyph-name="Ocircumflex" unicode="&#xd4;" horiz-adv-x="823" 
d="M407 -9q-151 0 -255.5 100t-104.5 250q0 68 25 130.5t70.5 111.5t115.5 78.5t153 29.5q162 0 263.5 -103t101.5 -247q0 -151 -106.5 -250.5t-262.5 -99.5zM406 62q123 0 206.5 79.5t83.5 201.5q0 109 -78 193t-207 84q-127 0 -205.5 -82.5t-78.5 -197.5q0 -121 83 -199.5
t196 -78.5zM450 885l100 -157h-47l-92 98l-92 -98h-46l100 157h77z" />
    <glyph glyph-name="Otilde" unicode="&#xd5;" horiz-adv-x="823" 
d="M407 -9q-151 0 -255.5 100t-104.5 250q0 68 25 130.5t70.5 111.5t115.5 78.5t153 29.5q162 0 263.5 -103t101.5 -247q0 -151 -106.5 -250.5t-262.5 -99.5zM406 62q123 0 206.5 79.5t83.5 201.5q0 109 -78 193t-207 84q-127 0 -205.5 -82.5t-78.5 -197.5q0 -121 83 -199.5
t196 -78.5zM292 753h-36l3 23.5t7 26t13.5 28t22.5 18.5t35 9q33 0 89 -24q45 -19 66 -19q15 0 24 9t11 16t4 20h36q0 -52 -25 -79.5t-57 -27.5q-27 0 -72 18q-64 25 -82 25q-32 0 -39 -43z" />
    <glyph glyph-name="Odieresis" unicode="&#xd6;" horiz-adv-x="823" 
d="M407 -9q-151 0 -255.5 100t-104.5 250q0 68 25 130.5t70.5 111.5t115.5 78.5t153 29.5q162 0 263.5 -103t101.5 -247q0 -151 -106.5 -250.5t-262.5 -99.5zM406 62q123 0 206.5 79.5t83.5 201.5q0 109 -78 193t-207 84q-127 0 -205.5 -82.5t-78.5 -197.5q0 -121 83 -199.5
t196 -78.5zM319 851q19 0 32 -13t13 -32t-13 -32t-32 -13t-32 13t-13 32t13 32t32 13zM504 851q19 0 32 -13t13 -32t-13 -32t-32 -13t-32 13t-13 32t13 32t32 13z" />
    <glyph glyph-name="multiply" unicode="&#xd7;" horiz-adv-x="667" 
d="M90 143l198 198l-198 198l45 46l199 -199l198 199l45 -46l-198 -198l198 -198l-45 -46l-198 199l-199 -199z" />
    <glyph glyph-name="Oslash" unicode="&#xd8;" horiz-adv-x="823" 
d="M196 55l-57 -64l-41 32l57 65q-108 108 -108 253q0 142 100 246t263 104q127 0 218 -65l57 65l40 -33l-56 -65q107 -104 107 -252q0 -149 -105.5 -249.5t-261.5 -100.5q-115 0 -213 64zM618 536l-373 -424q73 -50 165 -50q121 0 203.5 81t82.5 200q0 113 -78 193z
M205 145l373 425q-69 50 -167 50q-127 0 -205.5 -82.5t-78.5 -197.5q0 -112 78 -195z" />
    <glyph glyph-name="Ugrave" unicode="&#xd9;" horiz-adv-x="698" 
d="M638 682v-366q0 -72 -8 -114t-30 -79q-29 -51 -91 -91.5t-159 -40.5q-23 0 -48.5 3.5t-62.5 14.5t-72.5 37t-60.5 64q-27 41 -36.5 85t-9.5 121v366h75v-370q0 -75 12.5 -116.5t42.5 -73.5q60 -63 160 -63q72 0 120.5 32.5t70.5 77.5t22 143v370h75zM236 885h90l89 -157
h-44z" />
    <glyph glyph-name="Uacute" unicode="&#xda;" horiz-adv-x="698" 
d="M638 682v-366q0 -72 -8 -114t-30 -79q-29 -51 -91 -91.5t-159 -40.5q-23 0 -48.5 3.5t-62.5 14.5t-72.5 37t-60.5 64q-27 41 -36.5 85t-9.5 121v366h75v-370q0 -75 12.5 -116.5t42.5 -73.5q60 -63 160 -63q72 0 120.5 32.5t70.5 77.5t22 143v370h75zM478 885l-134 -157
h-44l88 157h90z" />
    <glyph glyph-name="Ucircumflex" unicode="&#xdb;" horiz-adv-x="698" 
d="M638 682v-366q0 -72 -8 -114t-30 -79q-29 -51 -91 -91.5t-159 -40.5q-23 0 -48.5 3.5t-62.5 14.5t-72.5 37t-60.5 64q-27 41 -36.5 85t-9.5 121v366h75v-370q0 -75 12.5 -116.5t42.5 -73.5q60 -63 160 -63q72 0 120.5 32.5t70.5 77.5t22 143v370h75zM388 885l100 -157
h-47l-92 98l-92 -98h-46l100 157h77z" />
    <glyph glyph-name="Udieresis" unicode="&#xdc;" horiz-adv-x="698" 
d="M638 682v-366q0 -72 -8 -114t-30 -79q-29 -51 -91 -91.5t-159 -40.5q-23 0 -48.5 3.5t-62.5 14.5t-72.5 37t-60.5 64q-27 41 -36.5 85t-9.5 121v366h75v-370q0 -75 12.5 -116.5t42.5 -73.5q60 -63 160 -63q72 0 120.5 32.5t70.5 77.5t22 143v370h75zM257 851q19 0 32 -13
t13 -32t-13 -32t-32 -13t-32 13t-13 32t13 32t32 13zM442 851q19 0 32 -13t13 -32t-13 -32t-32 -13t-32 13t-13 32t13 32t32 13z" />
    <glyph glyph-name="Yacute" unicode="&#xdd;" horiz-adv-x="599" 
d="M596 682l-260 -318v-364h-75v364l-258 318h91l204 -252l207 252h91zM428 885l-134 -157h-44l88 157h90z" />
    <glyph glyph-name="Thorn" unicode="&#xde;" horiz-adv-x="516" 
d="M80 682h75v-154h82q55 0 82.5 -2t64.5 -15t64 -40q52 -51 52 -130q0 -68 -34 -109t-78 -60q-45 -18 -151 -18h-82v-154h-75v682zM236 462h-81v-242h87q84 0 125 20q25 13 39 41.5t14 60.5q0 70 -54 101q-36 19 -130 19z" />
    <glyph glyph-name="germandbls" unicode="&#xdf;" horiz-adv-x="509" 
d="M224 0v68q33 -11 56 -11q61 0 89 44t28 96q0 71 -38.5 109t-102.5 38v63q112 0 112 113q0 64 -37 90.5t-80 26.5q-31 0 -53 -10t-34.5 -25t-19 -40t-8.5 -47.5t-2 -55.5v-459h-69v480q0 211 184 211q52 0 91 -16t59 -42t29.5 -52.5t9.5 -53.5q0 -101 -94 -149
q123 -42 123 -181q0 -80 -45.5 -143t-132.5 -63q-29 0 -65 9z" />
    <glyph glyph-name="agrave" unicode="&#xe0;" horiz-adv-x="438" 
d="M427 79v-47q-57 -41 -89 -41q-39 0 -49 51q-68 -51 -131 -51q-48 0 -82 32.5t-34 81.5q0 59 56.5 100t189.5 65v40q0 87 -89 87q-69 0 -140 -66v72q64 55 146 55q45 0 77 -14.5t47.5 -37.5t21.5 -45t6 -44v-246q0 -14 2.5 -19t9.5 -5q19 0 58 32zM288 89v136
q-177 -32 -177 -115q0 -36 25 -52.5t51 -16.5q50 0 101 48zM106 686h90l89 -157h-44z" />
    <glyph glyph-name="aacute" unicode="&#xe1;" horiz-adv-x="438" 
d="M427 79v-47q-57 -41 -89 -41q-39 0 -49 51q-68 -51 -131 -51q-48 0 -82 32.5t-34 81.5q0 59 56.5 100t189.5 65v40q0 87 -89 87q-69 0 -140 -66v72q64 55 146 55q45 0 77 -14.5t47.5 -37.5t21.5 -45t6 -44v-246q0 -14 2.5 -19t9.5 -5q19 0 58 32zM288 89v136
q-177 -32 -177 -115q0 -36 25 -52.5t51 -16.5q50 0 101 48zM333 686l-134 -157h-44l88 157h90z" />
    <glyph glyph-name="acircumflex" unicode="&#xe2;" horiz-adv-x="438" 
d="M427 79v-47q-57 -41 -89 -41q-39 0 -49 51q-68 -51 -131 -51q-48 0 -82 32.5t-34 81.5q0 59 56.5 100t189.5 65v40q0 87 -89 87q-69 0 -140 -66v72q64 55 146 55q45 0 77 -14.5t47.5 -37.5t21.5 -45t6 -44v-246q0 -14 2.5 -19t9.5 -5q19 0 58 32zM288 89v136
q-177 -32 -177 -115q0 -36 25 -52.5t51 -16.5q50 0 101 48zM243 686l100 -157h-47l-92 98l-92 -98h-46l100 157h77z" />
    <glyph glyph-name="atilde" unicode="&#xe3;" horiz-adv-x="438" 
d="M427 79v-47q-57 -41 -89 -41q-39 0 -49 51q-68 -51 -131 -51q-48 0 -82 32.5t-34 81.5q0 59 56.5 100t189.5 65v40q0 87 -89 87q-69 0 -140 -66v72q64 55 146 55q45 0 77 -14.5t47.5 -37.5t21.5 -45t6 -44v-246q0 -14 2.5 -19t9.5 -5q19 0 58 32zM288 89v136
q-177 -32 -177 -115q0 -36 25 -52.5t51 -16.5q50 0 101 48zM100 554h-36l3 23.5t7 26t13.5 28t22.5 18.5t35 9q33 0 89 -24q45 -19 66 -19q15 0 24 9t11 16t4 20h36q0 -52 -25 -79.5t-57 -27.5q-27 0 -72 18q-64 25 -82 25q-32 0 -39 -43z" />
    <glyph glyph-name="adieresis" unicode="&#xe4;" horiz-adv-x="438" 
d="M427 79v-47q-57 -41 -89 -41q-39 0 -49 51q-68 -51 -131 -51q-48 0 -82 32.5t-34 81.5q0 59 56.5 100t189.5 65v40q0 87 -89 87q-69 0 -140 -66v72q64 55 146 55q45 0 77 -14.5t47.5 -37.5t21.5 -45t6 -44v-246q0 -14 2.5 -19t9.5 -5q19 0 58 32zM288 89v136
q-177 -32 -177 -115q0 -36 25 -52.5t51 -16.5q50 0 101 48zM112 652q19 0 32 -13t13 -32t-13 -32t-32 -13t-32 13t-13 32t13 32t32 13zM297 652q19 0 32 -13t13 -32t-13 -32t-32 -13t-32 13t-13 32t13 32t32 13z" />
    <glyph glyph-name="aring" unicode="&#xe5;" horiz-adv-x="438" 
d="M427 79v-47q-57 -41 -89 -41q-39 0 -49 51q-68 -51 -131 -51q-48 0 -82 32.5t-34 81.5q0 59 56.5 100t189.5 65v40q0 87 -89 87q-69 0 -140 -66v72q64 55 146 55q45 0 77 -14.5t47.5 -37.5t21.5 -45t6 -44v-246q0 -14 2.5 -19t9.5 -5q19 0 58 32zM288 89v136
q-177 -32 -177 -115q0 -36 25 -52.5t51 -16.5q50 0 101 48zM204 525q-39 0 -66 27t-27 66t27 66.5t66 27.5t66.5 -27.5t27.5 -66.5t-27.5 -66t-66.5 -27zM204 568q21 0 36 14.5t15 35.5t-15 36t-36 15t-35.5 -15t-14.5 -36t14.5 -35.5t35.5 -14.5z" />
    <glyph glyph-name="ae" unicode="&#xe6;" horiz-adv-x="671" 
d="M637 233h-283q-3 -55 11 -93.5t38 -56t45 -24.5t40 -7q35 0 71 13.5t45 20l33 23.5v-71q-78 -47 -156 -47q-97 0 -151 70q-92 -70 -166 -70q-61 0 -91.5 35.5t-30.5 80.5q0 24 7 42.5t25 34.5t34 26.5t50.5 23.5t57 20l69.5 21q0 21 -1 34.5t-5.5 32t-13 29t-25 18.5
t-40.5 8q-68 0 -142 -67v78q68 50 147 50q91 0 130 -63l6.5 6.5l8.5 8.5t9.5 9t12 9.5l14 9t17 8.5t18.5 6t21.5 4.5t23.5 1.5q52 0 89 -24.5t53 -62t22.5 -67t6.5 -54.5v-17zM359 283h207q-3 49 -29.5 81.5t-73.5 32.5q-36 0 -67 -28.5t-37 -85.5zM285 84v148l-60 -20
t-46.5 -19t-38.5 -22t-21 -24.5t-9 -32.5q0 -30 23 -51.5t53 -21.5q37 0 99 43z" />
    <glyph glyph-name="ccedilla" unicode="&#xe7;" horiz-adv-x="429" 
d="M386 431v-74q-64 37 -123 37q-55 0 -91 -32t-47.5 -68t-11.5 -71q0 -66 39.5 -117t122.5 -51q56 0 120 29v-68q-57 -23 -120 -25l-10 -27q76 -4 76 -66q0 -101 -184 -89l4 48q107 -1 107 39q0 32 -78 32l30 67q-85 14 -131.5 75.5t-46.5 150.5q0 108 62.5 172.5
t158.5 64.5q58 0 123 -27z" />
    <glyph glyph-name="egrave" unicode="&#xe8;" horiz-adv-x="481" 
d="M446 236v-16h-333q0 -78 46.5 -123t114.5 -45q88 0 165 63v-70q-80 -54 -173 -54q-107 0 -165.5 68.5t-58.5 166.5q0 110 61.5 171t144.5 61q84 0 141 -62.5t57 -159.5zM117 270h258q-7 66 -44 96.5t-81 30.5q-46 0 -83.5 -31.5t-49.5 -95.5zM132 686h90l89 -157h-44z
" />
    <glyph glyph-name="eacute" unicode="&#xe9;" horiz-adv-x="481" 
d="M446 236v-16h-333q0 -78 46.5 -123t114.5 -45q88 0 165 63v-70q-80 -54 -173 -54q-107 0 -165.5 68.5t-58.5 166.5q0 110 61.5 171t144.5 61q84 0 141 -62.5t57 -159.5zM117 270h258q-7 66 -44 96.5t-81 30.5q-46 0 -83.5 -31.5t-49.5 -95.5zM369 686l-134 -157h-44
l88 157h90z" />
    <glyph glyph-name="ecircumflex" unicode="&#xea;" horiz-adv-x="481" 
d="M446 236v-16h-333q0 -78 46.5 -123t114.5 -45q88 0 165 63v-70q-80 -54 -173 -54q-107 0 -165.5 68.5t-58.5 166.5q0 110 61.5 171t144.5 61q84 0 141 -62.5t57 -159.5zM117 270h258q-7 66 -44 96.5t-81 30.5q-46 0 -83.5 -31.5t-49.5 -95.5zM279 686l100 -157h-47
l-92 98l-92 -98h-46l100 157h77z" />
    <glyph glyph-name="edieresis" unicode="&#xeb;" horiz-adv-x="481" 
d="M446 236v-16h-333q0 -78 46.5 -123t114.5 -45q88 0 165 63v-70q-80 -54 -173 -54q-107 0 -165.5 68.5t-58.5 166.5q0 110 61.5 171t144.5 61q84 0 141 -62.5t57 -159.5zM117 270h258q-7 66 -44 96.5t-81 30.5q-46 0 -83.5 -31.5t-49.5 -95.5zM148 652q19 0 32 -13t13 -32
t-13 -32t-32 -13t-32 13t-13 32t13 32t32 13zM333 652q19 0 32 -13t13 -32t-13 -32t-32 -13t-32 13t-13 32t13 32t32 13z" />
    <glyph glyph-name="igrave" unicode="&#xec;" horiz-adv-x="199" 
d="M134 449v-449h-69v449h69zM-14 686h90l89 -157h-44z" />
    <glyph glyph-name="iacute" unicode="&#xed;" horiz-adv-x="199" 
d="M134 449v-449h-69v449h69zM228 686l-134 -157h-44l88 157h90z" />
    <glyph glyph-name="icircumflex" unicode="&#xee;" horiz-adv-x="199" 
d="M134 449v-449h-69v449h69zM138 686l100 -157h-47l-92 98l-92 -98h-46l100 157h77z" />
    <glyph glyph-name="idieresis" unicode="&#xef;" horiz-adv-x="199" 
d="M134 449v-449h-69v449h69zM7 652q19 0 32 -13t13 -32t-13 -32t-32 -13t-32 13t-13 32t13 32t32 13zM192 652q19 0 32 -13t13 -32t-13 -32t-32 -13t-32 13t-13 32t13 32t32 13z" />
    <glyph glyph-name="eth" unicode="&#xf0;" horiz-adv-x="550" 
d="M293 628l95 46l20 -44l-70 -33q171 -140 171 -349q0 -58 -15.5 -104t-39.5 -74t-56.5 -46.5t-63.5 -25.5t-64 -7q-110 0 -169 70.5t-59 160.5q0 57 24 109.5t77 89.5t125 37q73 0 140 -51q-27 61 -54.5 92.5t-76.5 67.5l-128 -61l-20 43l100 48q-49 28 -101 45l32 49
q65 -22 133 -63zM276 397q-76 0 -119.5 -52.5t-43.5 -119.5q0 -72 46.5 -122.5t116.5 -50.5t116 50.5t46 122.5q0 74 -47.5 123t-114.5 49z" />
    <glyph glyph-name="ntilde" unicode="&#xf1;" horiz-adv-x="492" 
d="M65 449h69v-68q58 77 141 77q75 0 118 -51t43 -139v-268h-69v262q0 61 -26 98t-82 37q-78 0 -125 -79v-318h-69v449zM127 554h-36l3 23.5t7 26t13.5 28t22.5 18.5t35 9q33 0 89 -24q45 -19 66 -19q15 0 24 9t11 16t4 20h36q0 -52 -25 -79.5t-57 -27.5q-27 0 -72 18
q-64 25 -82 25q-32 0 -39 -43z" />
    <glyph glyph-name="ograve" unicode="&#xf2;" horiz-adv-x="552" 
d="M275 458q97 0 165.5 -68t68.5 -165t-68.5 -165.5t-165.5 -68.5t-165 68.5t-68 165.5t68 165t165 68zM276 397q-70 0 -116.5 -50t-46.5 -122t46.5 -122.5t116.5 -50.5t116 50.5t46 122.5t-46 122t-116 50zM163 686h90l89 -157h-44z" />
    <glyph glyph-name="oacute" unicode="&#xf3;" horiz-adv-x="552" 
d="M275 458q97 0 165.5 -68t68.5 -165t-68.5 -165.5t-165.5 -68.5t-165 68.5t-68 165.5t68 165t165 68zM276 397q-70 0 -116.5 -50t-46.5 -122t46.5 -122.5t116.5 -50.5t116 50.5t46 122.5t-46 122t-116 50zM405 686l-134 -157h-44l88 157h90z" />
    <glyph glyph-name="ocircumflex" unicode="&#xf4;" horiz-adv-x="552" 
d="M275 458q97 0 165.5 -68t68.5 -165t-68.5 -165.5t-165.5 -68.5t-165 68.5t-68 165.5t68 165t165 68zM276 397q-70 0 -116.5 -50t-46.5 -122t46.5 -122.5t116.5 -50.5t116 50.5t46 122.5t-46 122t-116 50zM315 686l100 -157h-47l-92 98l-92 -98h-46l100 157h77z" />
    <glyph glyph-name="otilde" unicode="&#xf5;" horiz-adv-x="552" 
d="M275 458q97 0 165.5 -68t68.5 -165t-68.5 -165.5t-165.5 -68.5t-165 68.5t-68 165.5t68 165t165 68zM276 397q-70 0 -116.5 -50t-46.5 -122t46.5 -122.5t116.5 -50.5t116 50.5t46 122.5t-46 122t-116 50zM157 554h-36l3 23.5t7 26t13.5 28t22.5 18.5t35 9q33 0 89 -24
q45 -19 66 -19q15 0 24 9t11 16t4 20h36q0 -52 -25 -79.5t-57 -27.5q-27 0 -72 18q-64 25 -82 25q-32 0 -39 -43z" />
    <glyph glyph-name="odieresis" unicode="&#xf6;" horiz-adv-x="552" 
d="M275 458q97 0 165.5 -68t68.5 -165t-68.5 -165.5t-165.5 -68.5t-165 68.5t-68 165.5t68 165t165 68zM276 397q-70 0 -116.5 -50t-46.5 -122t46.5 -122.5t116.5 -50.5t116 50.5t46 122.5t-46 122t-116 50zM184 652q19 0 32 -13t13 -32t-13 -32t-32 -13t-32 13t-13 32
t13 32t32 13zM369 652q19 0 32 -13t13 -32t-13 -32t-32 -13t-32 13t-13 32t13 32t32 13z" />
    <glyph glyph-name="divide" unicode="&#xf7;" horiz-adv-x="667" 
d="M333 523q-17 0 -29 12t-12 29t12 29.5t29 12.5t29.5 -12.5t12.5 -29.5t-12.5 -29t-29.5 -12zM68 373h531v-65h-531v65zM333 158q17 0 29.5 -12t12.5 -29t-12.5 -29.5t-29.5 -12.5t-29 12.5t-12 29.5t12 29t29 12z" />
    <glyph glyph-name="oslash" unicode="&#xf8;" horiz-adv-x="552" 
d="M141 34l-56 -63l-33 30l55 62q-65 69 -65 161q0 96 67 165t168 69q78 0 135 -44l55 64l33 -28l-56 -65q65 -66 65 -159q0 -74 -36.5 -129t-88.5 -80.5t-108 -25.5q-74 0 -135 43zM402 337l-220 -255q42 -30 92 -30q74 0 119 50t45 123q0 67 -36 112zM149 112l221 254
q-1 1 -8.5 6t-14 8t-17.5 7.5t-25 7t-30 2.5q-71 0 -116.5 -48.5t-45.5 -123.5q0 -66 36 -113z" />
    <glyph glyph-name="ugrave" unicode="&#xf9;" horiz-adv-x="492" 
d="M427 0h-69v68q-58 -77 -141 -77q-75 0 -118 51t-43 139v268h69v-262q0 -61 26 -98t82 -37q78 0 125 79v318h69v-449zM133 686h90l89 -157h-44z" />
    <glyph glyph-name="uacute" unicode="&#xfa;" horiz-adv-x="492" 
d="M427 0h-69v68q-58 -77 -141 -77q-75 0 -118 51t-43 139v268h69v-262q0 -61 26 -98t82 -37q78 0 125 79v318h69v-449zM375 686l-134 -157h-44l88 157h90z" />
    <glyph glyph-name="ucircumflex" unicode="&#xfb;" horiz-adv-x="492" 
d="M427 0h-69v68q-58 -77 -141 -77q-75 0 -118 51t-43 139v268h69v-262q0 -61 26 -98t82 -37q78 0 125 79v318h69v-449zM285 686l100 -157h-47l-92 98l-92 -98h-46l100 157h77z" />
    <glyph glyph-name="udieresis" unicode="&#xfc;" horiz-adv-x="492" 
d="M427 0h-69v68q-58 -77 -141 -77q-75 0 -118 51t-43 139v268h69v-262q0 -61 26 -98t82 -37q78 0 125 79v318h69v-449zM154 652q19 0 32 -13t13 -32t-13 -32t-32 -13t-32 13t-13 32t13 32t32 13zM339 652q19 0 32 -13t13 -32t-13 -32t-32 -13t-32 13t-13 32t13 32t32 13z
" />
    <glyph glyph-name="yacute" unicode="&#xfd;" horiz-adv-x="432" 
d="M430 449l-327 -679h-74l155 322l-182 357h75l143 -283l135 283h75zM345 686l-134 -157h-44l88 157h90z" />
    <glyph glyph-name="thorn" unicode="&#xfe;" horiz-adv-x="513" 
d="M65 682h69v-250q49 26 103 26q60 0 111 -22.5t87 -77t36 -134.5q0 -103 -60.5 -168t-161.5 -65q-52 0 -115 27v-239h-69v903zM134 371v-290q49 -28 104 -28q67 0 114 42.5t47 127.5q0 74 -43 124t-130 50q-50 0 -92 -26z" />
    <glyph glyph-name="ydieresis" unicode="&#xff;" horiz-adv-x="432" 
d="M430 449l-327 -679h-74l155 322l-182 357h75l143 -283l135 283h75zM124 652q19 0 32 -13t13 -32t-13 -32t-32 -13t-32 13t-13 32t13 32t32 13zM309 652q19 0 32 -13t13 -32t-13 -32t-32 -13t-32 13t-13 32t13 32t32 13z" />
    <glyph glyph-name="Amacron" unicode="&#x100;" horiz-adv-x="668" 
d="M355 686l311 -686h-78l-99 219h-312l-97 -219h-78l303 686h50zM458 285l-128 283l-124 -283h252zM483 838v-63h-299v63h299z" />
    <glyph glyph-name="amacron" unicode="&#x101;" horiz-adv-x="438" 
d="M427 79v-47q-57 -41 -89 -41q-39 0 -49 51q-68 -51 -131 -51q-48 0 -82 32.5t-34 81.5q0 59 56.5 100t189.5 65v40q0 87 -89 87q-69 0 -140 -66v72q64 55 146 55q45 0 77 -14.5t47.5 -37.5t21.5 -45t6 -44v-246q0 -14 2.5 -19t9.5 -5q19 0 58 32zM288 89v136
q-177 -32 -177 -115q0 -36 25 -52.5t51 -16.5q50 0 101 48zM358 639v-63h-299v63h299z" />
    <glyph glyph-name="Abreve" unicode="&#x102;" horiz-adv-x="668" 
d="M355 686l311 -686h-78l-99 219h-312l-97 -219h-78l303 686h50zM458 285l-128 283l-124 -283h252zM195 850h53q26 -66 87 -66q35 0 53 17.5t31 48.5h53q-37 -122 -138 -122q-56 0 -92 36.5t-47 85.5z" />
    <glyph glyph-name="abreve" unicode="&#x103;" horiz-adv-x="438" 
d="M427 79v-47q-57 -41 -89 -41q-39 0 -49 51q-68 -51 -131 -51q-48 0 -82 32.5t-34 81.5q0 59 56.5 100t189.5 65v40q0 87 -89 87q-69 0 -140 -66v72q64 55 146 55q45 0 77 -14.5t47.5 -37.5t21.5 -45t6 -44v-246q0 -14 2.5 -19t9.5 -5q19 0 58 32zM288 89v136
q-177 -32 -177 -115q0 -36 25 -52.5t51 -16.5q50 0 101 48zM65 651h53q26 -66 87 -66q35 0 53 17.5t31 48.5h53q-37 -122 -138 -122q-56 0 -92 36.5t-47 85.5z" />
    <glyph glyph-name="Aogonek" unicode="&#x104;" horiz-adv-x="668" 
d="M588 0l-99 219h-312l-97 -219h-78l303 686h50l311 -686h-19q-39 -49 -39 -75q0 -23 19 -39t45 -16q14 0 36 6v-58q-31 -11 -60 -11q-49 0 -80 26.5t-31 70.5q0 50 51 96zM458 285l-128 283l-124 -283h252z" />
    <glyph glyph-name="aogonek" unicode="&#x105;" horiz-adv-x="438" 
d="M425 -112v-52q-40 -10 -59 -10q-34 0 -64 22t-30 67q0 48 41 83q-17 10 -24 44q-68 -51 -131 -51q-48 0 -82 32.5t-34 81.5q0 59 56.5 100t189.5 65v40q0 87 -89 87q-69 0 -140 -66v72q64 55 146 55q45 0 77 -14.5t47.5 -37.5t21.5 -45t6 -44v-246q0 -14 2.5 -19t9.5 -5
q19 0 58 32v-47q-9 -6 -32.5 -20.5t-32.5 -21t-18 -22t-9 -34.5q0 -25 18 -38.5t37 -13.5q5 0 35 6zM288 89v136q-177 -32 -177 -115q0 -36 25 -52.5t51 -16.5q50 0 101 48z" />
    <glyph glyph-name="Cacute" unicode="&#x106;" horiz-adv-x="694" 
d="M650 634v-81q-123 67 -237 67q-122 0 -204 -80t-82 -201t81 -199t202 -78q123 0 247 72v-81q-116 -62 -245 -62q-161 0 -263 101t-102 247q0 155 108 253.5t252 98.5q114 0 243 -57zM506 885l-134 -157h-44l88 157h90z" />
    <glyph glyph-name="cacute" unicode="&#x107;" horiz-adv-x="429" 
d="M386 431v-74q-64 37 -123 37q-55 0 -91 -32t-47.5 -68t-11.5 -71q0 -66 39.5 -117t122.5 -51q56 0 120 29v-68q-66 -25 -127 -25q-106 0 -166 64.5t-60 165.5q0 108 62.5 172.5t158.5 64.5q58 0 123 -27zM379 686l-134 -157h-44l88 157h90z" />
    <glyph glyph-name="Ccircumflex" unicode="&#x108;" horiz-adv-x="694" 
d="M650 634v-81q-123 67 -237 67q-122 0 -204 -80t-82 -201t81 -199t202 -78q123 0 247 72v-81q-116 -62 -245 -62q-161 0 -263 101t-102 247q0 155 108 253.5t252 98.5q114 0 243 -57zM433 885l100 -157h-47l-92 98l-92 -98h-46l100 157h77z" />
    <glyph glyph-name="ccircumflex" unicode="&#x109;" horiz-adv-x="429" 
d="M386 431v-74q-64 37 -123 37q-55 0 -91 -32t-47.5 -68t-11.5 -71q0 -66 39.5 -117t122.5 -51q56 0 120 29v-68q-66 -25 -127 -25q-106 0 -166 64.5t-60 165.5q0 108 62.5 172.5t158.5 64.5q58 0 123 -27zM277 686l100 -157h-47l-92 98l-92 -98h-46l100 157h77z" />
    <glyph glyph-name="Cdotaccent" unicode="&#x10a;" horiz-adv-x="694" 
d="M650 634v-81q-123 67 -237 67q-122 0 -204 -80t-82 -201t81 -199t202 -78q123 0 247 72v-81q-116 -62 -245 -62q-161 0 -263 101t-102 247q0 155 108 253.5t252 98.5q114 0 243 -57zM389 853q20 0 34 -14t14 -34t-14 -34t-34 -14t-34 14t-14 34t14 34t34 14z" />
    <glyph glyph-name="cdotaccent" unicode="&#x10b;" horiz-adv-x="429" 
d="M386 431v-74q-64 37 -123 37q-55 0 -91 -32t-47.5 -68t-11.5 -71q0 -66 39.5 -117t122.5 -51q56 0 120 29v-68q-66 -25 -127 -25q-106 0 -166 64.5t-60 165.5q0 108 62.5 172.5t158.5 64.5q58 0 123 -27zM239 652q19 0 32 -13t13 -32t-13 -32t-32 -13t-32 13t-13 32
t13 32t32 13z" />
    <glyph glyph-name="Ccaron" unicode="&#x10c;" horiz-adv-x="694" 
d="M650 634v-81q-123 67 -237 67q-122 0 -204 -80t-82 -201t81 -199t202 -78q123 0 247 72v-81q-116 -62 -245 -62q-161 0 -263 101t-102 247q0 155 108 253.5t252 98.5q114 0 243 -57zM346 728l-100 157h47l92 -98l92 98h46l-100 -157h-77z" />
    <glyph glyph-name="ccaron" unicode="&#x10d;" horiz-adv-x="429" 
d="M386 431v-74q-64 37 -123 37q-55 0 -91 -32t-47.5 -68t-11.5 -71q0 -66 39.5 -117t122.5 -51q56 0 120 29v-68q-66 -25 -127 -25q-106 0 -166 64.5t-60 165.5q0 108 62.5 172.5t158.5 64.5q58 0 123 -27zM203 529l-100 157h47l92 -98l92 98h46l-100 -157h-77z" />
    <glyph glyph-name="Dcaron" unicode="&#x10e;" horiz-adv-x="746" 
d="M80 682h211q85 0 156.5 -19t129 -58t90 -106.5t32.5 -157.5t-32.5 -157.5t-90 -106.5t-129 -58t-156.5 -19h-211v682zM155 616v-550h141q47 0 88 6t85.5 24.5t76.5 47.5t52.5 80t20.5 117t-20.5 117t-52.5 80t-76.5 47.5t-85.5 24.5t-88 6h-141zM288 728l-100 157h47
l92 -98l92 98h46l-100 -157h-77z" />
    <glyph glyph-name="dcaron" unicode="&#x10f;" horiz-adv-x="555" 
d="M448 0h-158q-118 0 -183 58t-65 166q0 99 59.5 166.5t163.5 67.5q50 0 114 -27v251h69v-682zM379 61v307q-52 29 -103 29q-79 0 -121 -49t-42 -122q0 -79 48.5 -122t129.5 -43h88zM497 471v16q41 41 35 90q-44 14 -44 56q0 26 15.5 42t34.5 16q28 0 43 -23t15 -58
q0 -16 -3.5 -33t-13 -38.5t-31 -39.5t-51.5 -28z" />
    <glyph glyph-name="Dcroat" unicode="&#x110;" horiz-adv-x="746" 
d="M80 682h211q85 0 156.5 -19t129 -58t90 -106.5t32.5 -157.5t-32.5 -157.5t-90 -106.5t-129 -58t-156.5 -19h-211v314h-91v54h91v314zM155 616v-248h207v-54h-207v-248h141q47 0 88 6t85.5 24.5t76.5 47.5t52.5 80t20.5 117t-20.5 117t-52.5 80t-76.5 47.5t-85.5 24.5
t-88 6h-141z" />
    <glyph glyph-name="dcroat" unicode="&#x111;" horiz-adv-x="513" 
d="M249 541v46h130v95h69v-95h69v-46h-69v-541h-158q-118 0 -183 58t-65 166q0 99 59.5 166.5t163.5 67.5q50 0 114 -27v110h-130zM379 61v307q-52 29 -103 29q-79 0 -121 -49t-42 -122q0 -79 48.5 -122t129.5 -43h88z" />
    <glyph glyph-name="Emacron" unicode="&#x112;" horiz-adv-x="499" 
d="M460 682v-66h-305v-239h296v-66h-296v-245h313v-66h-388v682h380zM414 838v-63h-299v63h299z" />
    <glyph glyph-name="emacron" unicode="&#x113;" horiz-adv-x="481" 
d="M446 236v-16h-333q0 -78 46.5 -123t114.5 -45q88 0 165 63v-70q-80 -54 -173 -54q-107 0 -165.5 68.5t-58.5 166.5q0 110 61.5 171t144.5 61q84 0 141 -62.5t57 -159.5zM117 270h258q-7 66 -44 96.5t-81 30.5q-46 0 -83.5 -31.5t-49.5 -95.5zM400 639v-63h-299v63h299z
" />
    <glyph glyph-name="Ebreve" unicode="&#x114;" horiz-adv-x="499" 
d="M460 682v-66h-305v-239h296v-66h-296v-245h313v-66h-388v682h380zM127 850h53q26 -66 87 -66q35 0 53 17.5t31 48.5h53q-37 -122 -138 -122q-56 0 -92 36.5t-47 85.5z" />
    <glyph glyph-name="ebreve" unicode="&#x115;" horiz-adv-x="481" 
d="M446 236v-16h-333q0 -78 46.5 -123t114.5 -45q88 0 165 63v-70q-80 -54 -173 -54q-107 0 -165.5 68.5t-58.5 166.5q0 110 61.5 171t144.5 61q84 0 141 -62.5t57 -159.5zM117 270h258q-7 66 -44 96.5t-81 30.5q-46 0 -83.5 -31.5t-49.5 -95.5zM112 651h53q26 -66 87 -66
q35 0 53 17.5t31 48.5h53q-37 -122 -138 -122q-56 0 -92 36.5t-47 85.5z" />
    <glyph glyph-name="Edotaccent" unicode="&#x116;" horiz-adv-x="499" 
d="M460 682v-66h-305v-239h296v-66h-296v-245h313v-66h-388v682h380zM269 853q20 0 34 -14t14 -34t-14 -34t-34 -14t-34 14t-14 34t14 34t34 14z" />
    <glyph glyph-name="edotaccent" unicode="&#x117;" horiz-adv-x="481" 
d="M446 236v-16h-333q0 -78 46.5 -123t114.5 -45q88 0 165 63v-70q-80 -54 -173 -54q-107 0 -165.5 68.5t-58.5 166.5q0 110 61.5 171t144.5 61q84 0 141 -62.5t57 -159.5zM117 270h258q-7 66 -44 96.5t-81 30.5q-46 0 -83.5 -31.5t-49.5 -95.5zM250 652q19 0 32 -13t13 -32
t-13 -32t-32 -13t-32 13t-13 32t13 32t32 13z" />
    <glyph glyph-name="Eogonek" unicode="&#x118;" horiz-adv-x="499" 
d="M345 0h-265v682h380v-66h-305v-239h296v-66h-296v-245h313v-66h-64q-39 -49 -39 -75q0 -23 19 -39t45 -16q14 0 36 6v-58q-31 -11 -60 -11q-49 0 -80 26.5t-31 70.5q0 50 51 96z" />
    <glyph glyph-name="eogonek" unicode="&#x119;" horiz-adv-x="481" 
d="M430 -112v-52q-40 -10 -59 -10q-34 0 -64 22t-30 67q0 47 37 79q-22 -3 -48 -3q-107 0 -165.5 68.5t-58.5 166.5q0 110 61.5 171t144.5 61q84 0 141 -62.5t57 -159.5v-16h-333q0 -78 46.5 -123t114.5 -45q88 0 165 63v-70q-27 -18 -52 -30q-27 -29 -37 -45.5t-10 -35.5
q0 -25 18 -38.5t37 -13.5q5 0 35 6zM117 270h258q-7 66 -44 96.5t-81 30.5q-46 0 -83.5 -31.5t-49.5 -95.5z" />
    <glyph glyph-name="Ecaron" unicode="&#x11a;" horiz-adv-x="499" 
d="M460 682v-66h-305v-239h296v-66h-296v-245h313v-66h-388v682h380zM226 728l-100 157h47l92 -98l92 98h46l-100 -157h-77z" />
    <glyph glyph-name="ecaron" unicode="&#x11b;" horiz-adv-x="481" 
d="M446 236v-16h-333q0 -78 46.5 -123t114.5 -45q88 0 165 63v-70q-80 -54 -173 -54q-107 0 -165.5 68.5t-58.5 166.5q0 110 61.5 171t144.5 61q84 0 141 -62.5t57 -159.5zM117 270h258q-7 66 -44 96.5t-81 30.5q-46 0 -83.5 -31.5t-49.5 -95.5zM212 529l-100 157h47l92 -98
l92 98h46l-100 -157h-77z" />
    <glyph glyph-name="Gcircumflex" unicode="&#x11c;" horiz-adv-x="726" 
d="M651 633v-80q-113 70 -242 70q-122 0 -202 -81.5t-80 -200.5q0 -131 85.5 -207.5t195.5 -76.5q81 0 182 38v162h-138v66h213v-275q-130 -57 -250 -57q-167 0 -267.5 102.5t-100.5 246.5q0 148 102.5 249.5t264.5 101.5q46 0 92.5 -10t74 -20t70.5 -28zM435 885l100 -157
h-47l-92 98l-92 -98h-46l100 157h77z" />
    <glyph glyph-name="gcircumflex" unicode="&#x11d;" horiz-adv-x="427" 
d="M419 449v-55h-97q55 -49 55 -110q0 -58 -37 -95.5t-95 -51.5q-64 -15 -86.5 -25t-22.5 -30q0 -19 21.5 -29t76.5 -17q99 -13 141.5 -44t42.5 -87q0 -66 -58.5 -100.5t-145.5 -34.5q-97 0 -151 37.5t-54 93.5q0 37 27.5 69.5t94.5 44.5q-30 11 -45 28.5t-15 31.5
q0 15 6 26t20.5 19.5t24 12.5t31.5 12q-20 8 -35 17t-34 25.5t-29.5 43t-10.5 59.5q0 29 8.5 54.5t29.5 50.5t63.5 39.5t102.5 14.5h171zM314 289q0 42 -30 71.5t-73 29.5t-73.5 -29.5t-30.5 -71.5q0 -37 28.5 -68.5t75.5 -31.5t75 29t28 71zM353 -98q0 29 -33.5 52
t-113.5 23q-73 0 -102.5 -23t-29.5 -52q0 -77 142 -77q64 0 100.5 22t36.5 55zM252 686l100 -157h-47l-92 98l-92 -98h-46l100 157h77z" />
    <glyph glyph-name="Gbreve" unicode="&#x11e;" horiz-adv-x="726" 
d="M651 633v-80q-113 70 -242 70q-122 0 -202 -81.5t-80 -200.5q0 -131 85.5 -207.5t195.5 -76.5q81 0 182 38v162h-138v66h213v-275q-130 -57 -250 -57q-167 0 -267.5 102.5t-100.5 246.5q0 148 102.5 249.5t264.5 101.5q46 0 92.5 -10t74 -20t70.5 -28zM264 850h53
q26 -66 87 -66q35 0 53 17.5t31 48.5h53q-37 -122 -138 -122q-56 0 -92 36.5t-47 85.5z" />
    <glyph glyph-name="gbreve" unicode="&#x11f;" horiz-adv-x="427" 
d="M419 449v-55h-97q55 -49 55 -110q0 -58 -37 -95.5t-95 -51.5q-64 -15 -86.5 -25t-22.5 -30q0 -19 21.5 -29t76.5 -17q99 -13 141.5 -44t42.5 -87q0 -66 -58.5 -100.5t-145.5 -34.5q-97 0 -151 37.5t-54 93.5q0 37 27.5 69.5t94.5 44.5q-30 11 -45 28.5t-15 31.5
q0 15 6 26t20.5 19.5t24 12.5t31.5 12q-20 8 -35 17t-34 25.5t-29.5 43t-10.5 59.5q0 29 8.5 54.5t29.5 50.5t63.5 39.5t102.5 14.5h171zM314 289q0 42 -30 71.5t-73 29.5t-73.5 -29.5t-30.5 -71.5q0 -37 28.5 -68.5t75.5 -31.5t75 29t28 71zM353 -98q0 29 -33.5 52
t-113.5 23q-73 0 -102.5 -23t-29.5 -52q0 -77 142 -77q64 0 100.5 22t36.5 55zM85 651h53q26 -66 87 -66q35 0 53 17.5t31 48.5h53q-37 -122 -138 -122q-56 0 -92 36.5t-47 85.5z" />
    <glyph glyph-name="Gdotaccent" unicode="&#x120;" horiz-adv-x="726" 
d="M651 633v-80q-113 70 -242 70q-122 0 -202 -81.5t-80 -200.5q0 -131 85.5 -207.5t195.5 -76.5q81 0 182 38v162h-138v66h213v-275q-130 -57 -250 -57q-167 0 -267.5 102.5t-100.5 246.5q0 148 102.5 249.5t264.5 101.5q46 0 92.5 -10t74 -20t70.5 -28zM389 853
q20 0 34 -14t14 -34t-14 -34t-34 -14t-34 14t-14 34t14 34t34 14z" />
    <glyph glyph-name="gdotaccent" unicode="&#x121;" horiz-adv-x="427" 
d="M419 449v-55h-97q55 -49 55 -110q0 -58 -37 -95.5t-95 -51.5q-64 -15 -86.5 -25t-22.5 -30q0 -19 21.5 -29t76.5 -17q99 -13 141.5 -44t42.5 -87q0 -66 -58.5 -100.5t-145.5 -34.5q-97 0 -151 37.5t-54 93.5q0 37 27.5 69.5t94.5 44.5q-30 11 -45 28.5t-15 31.5
q0 15 6 26t20.5 19.5t24 12.5t31.5 12q-20 8 -35 17t-34 25.5t-29.5 43t-10.5 59.5q0 29 8.5 54.5t29.5 50.5t63.5 39.5t102.5 14.5h171zM314 289q0 42 -30 71.5t-73 29.5t-73.5 -29.5t-30.5 -71.5q0 -37 28.5 -68.5t75.5 -31.5t75 29t28 71zM353 -98q0 29 -33.5 52
t-113.5 23q-73 0 -102.5 -23t-29.5 -52q0 -77 142 -77q64 0 100.5 22t36.5 55zM213 652q19 0 32 -13t13 -32t-13 -32t-32 -13t-32 13t-13 32t13 32t32 13z" />
    <glyph glyph-name="Gcommaaccent" unicode="&#x122;" horiz-adv-x="726" 
d="M651 633v-80q-113 70 -242 70q-122 0 -202 -81.5t-80 -200.5q0 -131 85.5 -207.5t195.5 -76.5q81 0 182 38v162h-138v66h213v-275q-130 -57 -250 -57q-167 0 -267.5 102.5t-100.5 246.5q0 148 102.5 249.5t264.5 101.5q46 0 92.5 -10t74 -20t70.5 -28zM299 -213l3 48
q26 -2 41 -2q81 0 81 37q0 39 -102 34l9 48q11 1 33 1q19 0 37.5 -2.5t42.5 -9.5t38.5 -24t14.5 -42q0 -42 -40 -67t-110 -25q-31 0 -48 4z" />
    <glyph glyph-name="gcommaaccent" unicode="&#x123;" horiz-adv-x="427" 
d="M280 716v-14q-35 -36 -32 -80q40 -13 40 -50q0 -23 -13.5 -37.5t-29.5 -14.5q-24 0 -37.5 20.5t-13.5 51.5q0 20 5 40.5t26 46.5t55 37zM419 449v-55h-97q55 -49 55 -110q0 -58 -37 -95.5t-95 -51.5q-64 -15 -86.5 -25t-22.5 -30q0 -19 21.5 -29t76.5 -17
q99 -13 141.5 -44t42.5 -87q0 -66 -58.5 -100.5t-145.5 -34.5q-97 0 -151 37.5t-54 93.5q0 37 27.5 69.5t94.5 44.5q-30 11 -45 28.5t-15 31.5q0 15 6 26t20.5 19.5t24 12.5t31.5 12q-20 8 -35 17t-34 25.5t-29.5 43t-10.5 59.5q0 29 8.5 54.5t29.5 50.5t63.5 39.5
t102.5 14.5h171zM314 289q0 42 -30 71.5t-73 29.5t-73.5 -29.5t-30.5 -71.5q0 -37 28.5 -68.5t75.5 -31.5t75 29t28 71zM353 -98q0 29 -33.5 52t-113.5 23q-73 0 -102.5 -23t-29.5 -52q0 -77 142 -77q64 0 100.5 22t36.5 55z" />
    <glyph glyph-name="Hcircumflex" unicode="&#x124;" horiz-adv-x="729" 
d="M649 682v-682h-75v312h-419v-312h-75v682h75v-304h419v304h75zM403 885l100 -157h-47l-92 98l-92 -98h-46l100 157h77z" />
    <glyph glyph-name="hcircumflex" unicode="&#x125;" horiz-adv-x="492" 
d="M65 682h69v-301q58 77 141 77q75 0 118 -51t43 -139v-268h-69v262q0 61 -26 98t-82 37q-78 0 -125 -79v-318h-69v682zM284 885l100 -157h-47l-92 98l-92 -98h-46l100 157h77z" />
    <glyph glyph-name="Hbar" unicode="&#x126;" horiz-adv-x="729" 
d="M0 501v54h80v127h75v-127h419v127h75v-127h80v-54h-80v-501h-75v312h-419v-312h-75v501h-80zM155 378h419v123h-419v-123z" />
    <glyph glyph-name="hbar" unicode="&#x127;" horiz-adv-x="492" 
d="M65 682h69v-100h165v-46h-165v-155q58 77 141 77q75 0 118 -51t43 -139v-268h-69v262q0 61 -26 98t-82 37q-78 0 -125 -79v-318h-69v536h-70v46h70v100z" />
    <glyph glyph-name="Itilde" unicode="&#x128;" horiz-adv-x="240" 
d="M157 682v-682h-75v682h75zM1 753h-36l3 23.5t7 26t13.5 28t22.5 18.5t35 9q33 0 89 -24q45 -19 66 -19q15 0 24 9t11 16t4 20h36q0 -52 -25 -79.5t-57 -27.5q-27 0 -72 18q-64 25 -82 25q-32 0 -39 -43z" />
    <glyph glyph-name="itilde" unicode="&#x129;" horiz-adv-x="199" 
d="M134 449v-449h-69v449h69zM-20 554h-36l3 23.5t7 26t13.5 28t22.5 18.5t35 9q33 0 89 -24q45 -19 66 -19q15 0 24 9t11 16t4 20h36q0 -52 -25 -79.5t-57 -27.5q-27 0 -72 18q-64 25 -82 25q-32 0 -39 -43z" />
    <glyph glyph-name="Imacron" unicode="&#x12a;" horiz-adv-x="240" 
d="M157 682v-682h-75v682h75zM270 838v-63h-299v63h299z" />
    <glyph glyph-name="imacron" unicode="&#x12b;" horiz-adv-x="199" 
d="M134 449v-449h-69v449h69zM249 639v-63h-299v63h299z" />
    <glyph glyph-name="Ibreve" unicode="&#x12c;" horiz-adv-x="240" 
d="M157 682v-682h-75v682h75zM-18 850h53q26 -66 87 -66q35 0 53 17.5t31 48.5h53q-37 -122 -138 -122q-56 0 -92 36.5t-47 85.5z" />
    <glyph glyph-name="ibreve" unicode="&#x12d;" horiz-adv-x="199" 
d="M134 449v-449h-69v449h69zM-39 651h53q26 -66 87 -66q35 0 53 17.5t31 48.5h53q-37 -122 -138 -122q-56 0 -92 36.5t-47 85.5z" />
    <glyph glyph-name="Iogonek" unicode="&#x12e;" horiz-adv-x="240" 
d="M82 0v682h75v-682h-16q-39 -49 -39 -75q0 -23 19 -39t45 -16q14 0 36 6v-58q-31 -11 -60 -11q-49 0 -80 26.5t-31 70.5q0 50 51 96z" />
    <glyph glyph-name="iogonek" unicode="&#x12f;" horiz-adv-x="199" 
d="M174 -112v-52q-40 -10 -59 -10q-34 0 -64 22t-30 67q0 49 44 85v449h69v-449h-16q-34 -39 -34 -66q0 -25 18 -38.5t37 -13.5q5 0 35 6zM100 632q19 0 32 -13t13 -32t-13 -32t-32 -13t-32 13t-13 32t13 32t32 13z" />
    <glyph glyph-name="Idotaccent" unicode="&#x130;" horiz-adv-x="240" 
d="M157 682v-682h-75v682h75zM119 853q20 0 34 -14t14 -34t-14 -34t-34 -14t-34 14t-14 34t14 34t34 14z" />
    <glyph glyph-name="dotlessi" unicode="&#x131;" horiz-adv-x="199" 
d="M134 449v-449h-69v449h69z" />
    <glyph glyph-name="IJ" unicode="&#x132;" horiz-adv-x="474" 
d="M157 682v-682h-75v682h75zM397 682v-672q0 -101 -27 -146q-47 -79 -146 -79q-15 0 -23 1l-13 72q16 -2 28 -2q30 0 50.5 10t31.5 23.5t16.5 38t6.5 43t1 48.5v663h75z" />
    <glyph glyph-name="ij" unicode="&#x133;" horiz-adv-x="396" 
d="M134 449v-449h-69v449h69zM100 632q19 0 32 -13t13 -32t-13 -32t-32 -13t-32 13t-13 32t13 32t32 13zM333 449v-472q0 -89 -18 -130q-4 -10 -12 -22.5t-30.5 -30.5t-50.5 -24l-40 53q52 10 67 46.5t15 112.5v467h69zM299 632q19 0 32 -13t13 -32t-13 -32t-32 -13t-32 13
t-13 32t13 32t32 13z" />
    <glyph glyph-name="Jcircumflex" unicode="&#x134;" horiz-adv-x="234" 
d="M157 682v-672q0 -101 -27 -146q-47 -79 -146 -79q-15 0 -23 1l-13 72q16 -2 28 -2q30 0 50.5 10t31.5 23.5t16.5 38t6.5 43t1 48.5v663h75zM156 885l100 -157h-47l-92 98l-92 -98h-46l100 157h77z" />
    <glyph glyph-name="jcircumflex" unicode="&#x135;" horiz-adv-x="197" 
d="M134 449v-472q0 -89 -18 -130q-4 -10 -12 -22.5t-30.5 -30.5t-50.5 -24l-40 53q52 10 67 46.5t15 112.5v467h69zM138 686l100 -157h-47l-92 98l-92 -98h-46l100 157h77z" />
    <glyph glyph-name="Kcommaaccent" unicode="&#x136;" horiz-adv-x="598" 
d="M556 682l-310 -331l363 -351h-101l-353 340v-340h-75v682h75v-326l308 326h93zM218 -213l3 48q26 -2 41 -2q81 0 81 37q0 39 -102 34l9 48q11 1 33 1q19 0 37.5 -2.5t42.5 -9.5t38.5 -24t14.5 -42q0 -42 -40 -67t-110 -25q-31 0 -48 4z" />
    <glyph glyph-name="kcommaaccent" unicode="&#x137;" horiz-adv-x="460" 
d="M134 682v-682h-69v682h69zM447 449l-218 -216l258 -233h-94l-254 233l223 216h85zM163 -181l3 43q16 -2 30 -2q61 0 61 34q0 32 -61 32l12 39q8 1 14 1q36 0 63 -16.5t27 -51.5q0 -34 -25.5 -58.5t-85.5 -24.5q-25 0 -38 4z" />
    <glyph glyph-name="kgreenlandic" unicode="&#x138;" horiz-adv-x="460" 
d="M134 449v-449h-69v449h69zM447 449l-218 -216l258 -233h-94l-254 233l223 216h85z" />
    <glyph glyph-name="Lacute" unicode="&#x139;" horiz-adv-x="482" 
d="M155 682v-616h322v-66h-397v682h75zM270 885l-134 -157h-44l88 157h90z" />
    <glyph glyph-name="lacute" unicode="&#x13a;" horiz-adv-x="199" 
d="M134 682v-682h-69v682h69zM229 885l-134 -157h-44l88 157h90z" />
    <glyph glyph-name="Lcommaaccent" unicode="&#x13b;" horiz-adv-x="482" 
d="M155 682v-616h322v-66h-397v682h75zM158 -213l3 48q26 -2 41 -2q81 0 81 37q0 39 -102 34l9 48q11 1 33 1q19 0 37.5 -2.5t42.5 -9.5t38.5 -24t14.5 -42q0 -42 -40 -67t-110 -25q-31 0 -48 4z" />
    <glyph glyph-name="lcommaaccent" unicode="&#x13c;" horiz-adv-x="199" 
d="M134 682v-682h-69v682h69zM33 -181l3 43q16 -2 30 -2q61 0 61 34q0 32 -61 32l12 39q8 1 14 1q36 0 63 -16.5t27 -51.5q0 -34 -25.5 -58.5t-85.5 -24.5q-25 0 -38 4z" />
    <glyph glyph-name="Lcaron" unicode="&#x13d;" horiz-adv-x="482" 
d="M155 682v-616h322v-66h-397v682h75zM311 471v16q41 41 35 90q-44 14 -44 56q0 26 15.5 42t34.5 16q28 0 43 -23t15 -58q0 -16 -3.5 -33t-13 -38.5t-31 -39.5t-51.5 -28z" />
    <glyph glyph-name="lcaron" unicode="&#x13e;" horiz-adv-x="241" 
d="M134 682v-682h-69v682h69zM183 471v16q41 41 35 90q-44 14 -44 56q0 26 15.5 42t34.5 16q28 0 43 -23t15 -58q0 -16 -3.5 -33t-13 -38.5t-31 -39.5t-51.5 -28z" />
    <glyph glyph-name="Ldot" unicode="&#x13f;" horiz-adv-x="482" 
d="M155 682v-616h322v-66h-397v682h75zM308 393q20 0 34 -14t14 -34t-14 -34t-34 -14t-34 14t-14 34t14 34t34 14z" />
    <glyph glyph-name="ldot" unicode="&#x140;" horiz-adv-x="257" 
d="M134 682v-682h-69v682h69zM231 391q19 0 32 -13t13 -32t-13 -32t-32 -13t-32 13t-13 32t13 32t32 13z" />
    <glyph glyph-name="Lslash" unicode="&#x141;" horiz-adv-x="482" 
d="M155 302v-236h322v-66h-397v230l-73 -69v70l73 68v383h75v-311l129 123v-69z" />
    <glyph glyph-name="lslash" unicode="&#x142;" horiz-adv-x="199" 
d="M134 356v-356h-69v263l-64 -86v82l64 86v337h69v-245l64 86v-82z" />
    <glyph glyph-name="Nacute" unicode="&#x143;" horiz-adv-x="784" 
d="M704 682v-682h-64l-487 562v-562h-73v682h64l487 -562v562h73zM531 885l-134 -157h-44l88 157h90z" />
    <glyph glyph-name="nacute" unicode="&#x144;" horiz-adv-x="492" 
d="M65 449h69v-68q58 77 141 77q75 0 118 -51t43 -139v-268h-69v262q0 61 -26 98t-82 37q-78 0 -125 -79v-318h-69v449zM375 686l-134 -157h-44l88 157h90z" />
    <glyph glyph-name="Ncommaaccent" unicode="&#x145;" horiz-adv-x="784" 
d="M704 682v-682h-64l-487 562v-562h-73v682h64l487 -562v562h73zM308 -213l3 48q26 -2 41 -2q81 0 81 37q0 39 -102 34l9 48q11 1 33 1q19 0 37.5 -2.5t42.5 -9.5t38.5 -24t14.5 -42q0 -42 -40 -67t-110 -25q-31 0 -48 4z" />
    <glyph glyph-name="ncommaaccent" unicode="&#x146;" horiz-adv-x="492" 
d="M65 449h69v-68q58 77 141 77q75 0 118 -51t43 -139v-268h-69v262q0 61 -26 98t-82 37q-78 0 -125 -79v-318h-69v449zM183 -181l3 43q16 -2 30 -2q61 0 61 34q0 32 -61 32l12 39q8 1 14 1q36 0 63 -16.5t27 -51.5q0 -34 -25.5 -58.5t-85.5 -24.5q-25 0 -38 4z" />
    <glyph glyph-name="Ncaron" unicode="&#x147;" horiz-adv-x="784" 
d="M704 682v-682h-64l-487 562v-562h-73v682h64l487 -562v562h73zM353 728l-100 157h47l92 -98l92 98h46l-100 -157h-77z" />
    <glyph glyph-name="ncaron" unicode="&#x148;" horiz-adv-x="492" 
d="M65 449h69v-68q58 77 141 77q75 0 118 -51t43 -139v-268h-69v262q0 61 -26 98t-82 37q-78 0 -125 -79v-318h-69v449zM207 529l-100 157h47l92 -98l92 98h46l-100 -157h-77z" />
    <glyph glyph-name="napostrophe" unicode="&#x149;" horiz-adv-x="558" 
d="M131 449h69v-68q58 77 141 77q75 0 118 -51t43 -139v-268h-69v262q0 61 -26 98t-82 37q-78 0 -125 -79v-318h-69v449zM31 471v16q41 41 35 90q-44 14 -44 56q0 26 15.5 42t34.5 16q28 0 43 -23t15 -58q0 -16 -3.5 -33t-13 -38.5t-31 -39.5t-51.5 -28z" />
    <glyph glyph-name="Eng" unicode="&#x14a;" horiz-adv-x="711" 
d="M566 179v214q0 115 -52.5 170.5t-141.5 55.5q-75 0 -132 -36.5t-85 -96.5v-486h-75v682h75v-98q28 41 86 74t142 33q48 0 91 -13.5t82 -43.5t62 -88t23 -138v-231q0 -86 -42 -136t-119 -50q-32 0 -47 3l-12 74q20 -4 39 -4q57 0 81.5 26.5t24.5 88.5z" />
    <glyph glyph-name="eng" unicode="&#x14b;" horiz-adv-x="492" 
d="M367 -18v280q0 61 -26 98t-82 37q-78 0 -125 -79v-318h-69v449h69v-68q58 77 141 77q75 0 118 -51t43 -139v-291q0 -116 -36 -160q-29 -35 -75 -47l-40 53q52 10 67 46.5t15 112.5z" />
    <glyph glyph-name="Omacron" unicode="&#x14c;" horiz-adv-x="823" 
d="M407 -9q-151 0 -255.5 100t-104.5 250q0 68 25 130.5t70.5 111.5t115.5 78.5t153 29.5q162 0 263.5 -103t101.5 -247q0 -151 -106.5 -250.5t-262.5 -99.5zM406 62q123 0 206.5 79.5t83.5 201.5q0 109 -78 193t-207 84q-127 0 -205.5 -82.5t-78.5 -197.5q0 -121 83 -199.5
t196 -78.5zM561 838v-63h-299v63h299z" />
    <glyph glyph-name="omacron" unicode="&#x14d;" horiz-adv-x="552" 
d="M275 458q97 0 165.5 -68t68.5 -165t-68.5 -165.5t-165.5 -68.5t-165 68.5t-68 165.5t68 165t165 68zM276 397q-70 0 -116.5 -50t-46.5 -122t46.5 -122.5t116.5 -50.5t116 50.5t46 122.5t-46 122t-116 50zM425 639v-63h-299v63h299z" />
    <glyph glyph-name="Obreve" unicode="&#x14e;" horiz-adv-x="823" 
d="M407 -9q-151 0 -255.5 100t-104.5 250q0 68 25 130.5t70.5 111.5t115.5 78.5t153 29.5q162 0 263.5 -103t101.5 -247q0 -151 -106.5 -250.5t-262.5 -99.5zM406 62q123 0 206.5 79.5t83.5 201.5q0 109 -78 193t-207 84q-127 0 -205.5 -82.5t-78.5 -197.5q0 -121 83 -199.5
t196 -78.5zM273 850h53q26 -66 87 -66q35 0 53 17.5t31 48.5h53q-37 -122 -138 -122q-56 0 -92 36.5t-47 85.5z" />
    <glyph glyph-name="obreve" unicode="&#x14f;" horiz-adv-x="552" 
d="M275 458q97 0 165.5 -68t68.5 -165t-68.5 -165.5t-165.5 -68.5t-165 68.5t-68 165.5t68 165t165 68zM276 397q-70 0 -116.5 -50t-46.5 -122t46.5 -122.5t116.5 -50.5t116 50.5t46 122.5t-46 122t-116 50zM137 651h53q26 -66 87 -66q35 0 53 17.5t31 48.5h53
q-37 -122 -138 -122q-56 0 -92 36.5t-47 85.5z" />
    <glyph glyph-name="Ohungarumlaut" unicode="&#x150;" horiz-adv-x="823" 
d="M407 -9q-151 0 -255.5 100t-104.5 250q0 68 25 130.5t70.5 111.5t115.5 78.5t153 29.5q162 0 263.5 -103t101.5 -247q0 -151 -106.5 -250.5t-262.5 -99.5zM406 62q123 0 206.5 79.5t83.5 201.5q0 109 -78 193t-207 84q-127 0 -205.5 -82.5t-78.5 -197.5q0 -121 83 -199.5
t196 -78.5zM625 885l-131 -157h-44l85 157h90zM473 885l-131 -157h-44l85 157h90z" />
    <glyph glyph-name="ohungarumlaut" unicode="&#x151;" horiz-adv-x="552" 
d="M275 458q97 0 165.5 -68t68.5 -165t-68.5 -165.5t-165.5 -68.5t-165 68.5t-68 165.5t68 165t165 68zM276 397q-70 0 -116.5 -50t-46.5 -122t46.5 -122.5t116.5 -50.5t116 50.5t46 122.5t-46 122t-116 50zM479 686l-131 -157h-44l85 157h90zM327 686l-131 -157h-44l85 157
h90z" />
    <glyph glyph-name="OE" unicode="&#x152;" horiz-adv-x="907" 
d="M866 682v-66h-301v-239h292v-66h-292v-245h310v-66h-455q-90 0 -163 29.5t-117.5 78.5t-68.5 109t-24 125t24 125t68.5 108.5t117.5 77.5t163 29h446zM490 66v551h-58q-141 0 -222 -78t-81 -198t81 -197.5t222 -77.5h58z" />
    <glyph glyph-name="oe" unicode="&#x153;" horiz-adv-x="859" 
d="M824 236v-16h-324q0 -72 43 -119.5t117 -47.5q84 0 157 62v-70q-73 -54 -165 -54q-66 0 -114.5 29t-71.5 69q-80 -98 -194 -98q-94 0 -162 64.5t-68 168.5q0 101 69.5 167.5t166.5 66.5q118 0 187 -94q27 47 72 70.5t96 23.5q84 0 137.5 -62t53.5 -160zM503 270h250
q-7 65 -39.5 96t-78.5 31q-50 0 -86.5 -34.5t-45.5 -92.5zM273 397q-70 0 -115 -50t-45 -122t45.5 -122.5t114.5 -50.5t114 50t45 123q0 72 -45 122t-114 50z" />
    <glyph glyph-name="Racute" unicode="&#x154;" horiz-adv-x="592" 
d="M80 682h174q120 0 172.5 -54.5t52.5 -128.5q0 -122 -122 -167q34 -22 65 -63.5t102 -153.5q28 -44 78 -115h-90l-65 103q-41 66 -88 126q-35 44 -69 63.5t-86 19.5h-49v-312h-75v682zM243 616h-88v-238h88q74 0 115 31t41 89q0 55 -40 86.5t-116 31.5zM375 885l-134 -157
h-44l88 157h90z" />
    <glyph glyph-name="racute" unicode="&#x155;" horiz-adv-x="363" 
d="M65 449h69v-99q36 56 75 83q38 25 68 25q43 0 107 -53l-37 -60q-48 42 -87 42q-30 0 -62 -24.5t-48 -60.5t-16 -108v-194h-69v449zM351 686l-134 -157h-44l88 157h90z" />
    <glyph glyph-name="Rcommaaccent" unicode="&#x156;" horiz-adv-x="592" 
d="M80 682h174q120 0 172.5 -54.5t52.5 -128.5q0 -122 -122 -167q34 -22 65 -63.5t102 -153.5q28 -44 78 -115h-90l-65 103q-41 66 -88 126q-35 44 -69 63.5t-86 19.5h-49v-312h-75v682zM243 616h-88v-238h88q74 0 115 31t41 89q0 55 -40 86.5t-116 31.5zM214 -213l3 48
q26 -2 41 -2q81 0 81 37q0 39 -102 34l9 48q11 1 33 1q19 0 37.5 -2.5t42.5 -9.5t38.5 -24t14.5 -42q0 -42 -40 -67t-110 -25q-31 0 -48 4z" />
    <glyph glyph-name="rcommaaccent" unicode="&#x157;" horiz-adv-x="363" 
d="M65 449h69v-99q36 56 75 83q38 25 68 25q43 0 107 -53l-37 -60q-48 42 -87 42q-30 0 -62 -24.5t-48 -60.5t-16 -108v-194h-69v449zM63 -181l3 43q16 -2 30 -2q61 0 61 34q0 32 -61 32l12 39q8 1 14 1q36 0 63 -16.5t27 -51.5q0 -34 -25.5 -58.5t-85.5 -24.5q-25 0 -38 4z
" />
    <glyph glyph-name="Rcaron" unicode="&#x158;" horiz-adv-x="592" 
d="M80 682h174q120 0 172.5 -54.5t52.5 -128.5q0 -122 -122 -167q34 -22 65 -63.5t102 -153.5q28 -44 78 -115h-90l-65 103q-41 66 -88 126q-35 44 -69 63.5t-86 19.5h-49v-312h-75v682zM243 616h-88v-238h88q74 0 115 31t41 89q0 55 -40 86.5t-116 31.5zM222 728l-100 157
h47l92 -98l92 98h46l-100 -157h-77z" />
    <glyph glyph-name="rcaron" unicode="&#x159;" horiz-adv-x="363" 
d="M65 449h69v-99q36 56 75 83q38 25 68 25q43 0 107 -53l-37 -60q-48 42 -87 42q-30 0 -62 -24.5t-48 -60.5t-16 -108v-194h-69v449zM173 529l-100 157h47l92 -98l92 98h46l-100 -157h-77z" />
    <glyph glyph-name="Sacute" unicode="&#x15a;" horiz-adv-x="458" 
d="M396 646v-85q-84 62 -155 62q-38 0 -65 -12.5t-39.5 -31t-17.5 -34t-5 -27.5q0 -25 10.5 -45t33 -37.5t39 -27t46.5 -24.5q105 -52 143 -92.5t38 -113.5q0 -89 -61.5 -138t-137.5 -49q-90 0 -179 62v92q86 -86 177 -86q64 0 95.5 37t31.5 77q0 39 -29 72t-124 78
q-84 40 -120.5 84.5t-36.5 102.5q0 79 58 130t144 51q78 0 154 -45zM368 885l-134 -157h-44l88 157h90z" />
    <glyph glyph-name="sacute" unicode="&#x15b;" horiz-adv-x="375" 
d="M319 420v-69q-75 46 -127 46q-34 0 -55 -17t-21 -41q0 -25 23.5 -42.5t104.5 -59.5q7 -3 10 -5q82 -44 82 -115q0 -44 -36.5 -85t-111.5 -41q-67 0 -144 41v71q84 -51 145 -51q29 0 52.5 16.5t23.5 43.5q0 29 -23.5 48t-76.5 44q-27 13 -43 22t-36 25.5t-29.5 37.5
t-9.5 48q0 47 37.5 84t106.5 37q61 0 128 -38zM337 686l-134 -157h-44l88 157h90z" />
    <glyph glyph-name="Scircumflex" unicode="&#x15c;" horiz-adv-x="458" 
d="M396 646v-85q-84 62 -155 62q-38 0 -65 -12.5t-39.5 -31t-17.5 -34t-5 -27.5q0 -25 10.5 -45t33 -37.5t39 -27t46.5 -24.5q105 -52 143 -92.5t38 -113.5q0 -89 -61.5 -138t-137.5 -49q-90 0 -179 62v92q86 -86 177 -86q64 0 95.5 37t31.5 77q0 39 -29 72t-124 78
q-84 40 -120.5 84.5t-36.5 102.5q0 79 58 130t144 51q78 0 154 -45zM277 885l100 -157h-47l-92 98l-92 -98h-46l100 157h77z" />
    <glyph glyph-name="scircumflex" unicode="&#x15d;" horiz-adv-x="375" 
d="M319 420v-69q-75 46 -127 46q-34 0 -55 -17t-21 -41q0 -25 23.5 -42.5t104.5 -59.5q7 -3 10 -5q82 -44 82 -115q0 -44 -36.5 -85t-111.5 -41q-67 0 -144 41v71q84 -51 145 -51q29 0 52.5 16.5t23.5 43.5q0 29 -23.5 48t-76.5 44q-27 13 -43 22t-36 25.5t-29.5 37.5
t-9.5 48q0 47 37.5 84t106.5 37q61 0 128 -38zM226 686l100 -157h-47l-92 98l-92 -98h-46l100 157h77z" />
    <glyph glyph-name="uni015E" unicode="&#x15e;" horiz-adv-x="458" 
d="M396 646v-85q-84 62 -155 62q-38 0 -65 -12.5t-39.5 -31t-17.5 -34t-5 -27.5q0 -25 10.5 -45t33 -37.5t39 -27t46.5 -24.5q105 -52 143 -92.5t38 -113.5q0 -82 -52 -129.5t-122 -55.5l-5 -18q44 -6 63 -27.5t19 -48.5q0 -40 -41.5 -67.5t-107.5 -27.5q-36 0 -67 4l3 51
q22 -3 49 -3q89 0 89 38q0 36 -87 36l21 64q-71 10 -140 59v92q86 -86 177 -86q64 0 95.5 37t31.5 77q0 39 -29 72t-124 78q-84 40 -120.5 84.5t-36.5 102.5q0 79 58 130t144 51q78 0 154 -45z" />
    <glyph glyph-name="uni015F" unicode="&#x15f;" horiz-adv-x="375" 
d="M319 420v-69q-75 46 -127 46q-34 0 -55 -17t-21 -41q0 -25 23.5 -42.5t104.5 -59.5q7 -3 10 -5q82 -44 82 -115q0 -41 -33 -81t-101 -44l-10 -28q76 -4 76 -66q0 -101 -184 -89l4 48q107 -1 107 39q0 32 -78 32l29 67q-44 6 -102 37v71q84 -51 145 -51q29 0 52.5 16.5
t23.5 43.5q0 29 -23.5 48t-76.5 44q-27 13 -43 22t-36 25.5t-29.5 37.5t-9.5 48q0 47 37.5 84t106.5 37q61 0 128 -38z" />
    <glyph glyph-name="Scaron" unicode="&#x160;" horiz-adv-x="458" 
d="M396 646v-85q-84 62 -155 62q-38 0 -65 -12.5t-39.5 -31t-17.5 -34t-5 -27.5q0 -25 10.5 -45t33 -37.5t39 -27t46.5 -24.5q105 -52 143 -92.5t38 -113.5q0 -89 -61.5 -138t-137.5 -49q-90 0 -179 62v92q86 -86 177 -86q64 0 95.5 37t31.5 77q0 39 -29 72t-124 78
q-84 40 -120.5 84.5t-36.5 102.5q0 79 58 130t144 51q78 0 154 -45zM191 728l-100 157h47l92 -98l92 98h46l-100 -157h-77z" />
    <glyph glyph-name="scaron" unicode="&#x161;" horiz-adv-x="375" 
d="M319 420v-69q-75 46 -127 46q-34 0 -55 -17t-21 -41q0 -25 23.5 -42.5t104.5 -59.5q7 -3 10 -5q82 -44 82 -115q0 -44 -36.5 -85t-111.5 -41q-67 0 -144 41v71q84 -51 145 -51q29 0 52.5 16.5t23.5 43.5q0 29 -23.5 48t-76.5 44q-27 13 -43 22t-36 25.5t-29.5 37.5
t-9.5 48q0 47 37.5 84t106.5 37q61 0 128 -38zM149 529l-100 157h47l92 -98l92 98h46l-100 -157h-77z" />
    <glyph glyph-name="uni021A" unicode="&#x162;" horiz-adv-x="594" 
d="M580 682v-66h-246v-616h-75v616h-246v66h567zM189 -213l3 48q26 -2 41 -2q81 0 81 37q0 39 -102 34l9 48q11 1 33 1q19 0 37.5 -2.5t42.5 -9.5t38.5 -24t14.5 -42q0 -42 -40 -67t-110 -25q-31 0 -48 4z" />
    <glyph glyph-name="uni021A" unicode="&#x21a;" horiz-adv-x="594" 
d="M580 682v-66h-246v-616h-75v616h-246v66h567zM189 -213l3 48q26 -2 41 -2q81 0 81 37q0 39 -102 34l9 48q11 1 33 1q19 0 37.5 -2.5t42.5 -9.5t38.5 -24t14.5 -42q0 -42 -40 -67t-110 -25q-31 0 -48 4z" />
    <glyph glyph-name="uni021B" unicode="&#x163;" horiz-adv-x="313" 
d="M10 388v11l146 155v-105h135v-61h-135v-235q0 -26 1.5 -40.5t8 -29.5t20.5 -21.5t37 -6.5q34 0 91 27v-65q-55 -26 -105 -26q-63 0 -92.5 37.5t-29.5 96.5v263h-77zM121 -181l3 43q16 -2 30 -2q61 0 61 34q0 32 -61 32l12 39q8 1 14 1q36 0 63 -16.5t27 -51.5
q0 -34 -25.5 -58.5t-85.5 -24.5q-25 0 -38 4z" />
    <glyph glyph-name="uni021B" unicode="&#x21b;" horiz-adv-x="313" 
d="M10 388v11l146 155v-105h135v-61h-135v-235q0 -26 1.5 -40.5t8 -29.5t20.5 -21.5t37 -6.5q34 0 91 27v-65q-55 -26 -105 -26q-63 0 -92.5 37.5t-29.5 96.5v263h-77zM121 -181l3 43q16 -2 30 -2q61 0 61 34q0 32 -61 32l12 39q8 1 14 1q36 0 63 -16.5t27 -51.5
q0 -34 -25.5 -58.5t-85.5 -24.5q-25 0 -38 4z" />
    <glyph glyph-name="Tcaron" unicode="&#x164;" horiz-adv-x="594" 
d="M580 682v-66h-246v-616h-75v616h-246v66h567zM258 728l-100 157h47l92 -98l92 98h46l-100 -157h-77z" />
    <glyph glyph-name="tcaron" unicode="&#x165;" horiz-adv-x="379" 
d="M10 388v11l146 155v-105h135v-61h-135v-235q0 -26 1.5 -40.5t8 -29.5t20.5 -21.5t37 -6.5q34 0 91 27v-65q-55 -26 -105 -26q-63 0 -92.5 37.5t-29.5 96.5v263h-77zM321 471v16q41 41 35 90q-44 14 -44 56q0 26 15.5 42t34.5 16q28 0 43 -23t15 -58q0 -16 -3.5 -33
t-13 -38.5t-31 -39.5t-51.5 -28z" />
    <glyph glyph-name="Tbar" unicode="&#x166;" horiz-adv-x="594" 
d="M580 682v-66h-246v-257h208v-53h-208v-306h-75v306h-208v53h208v257h-246v66h567z" />
    <glyph glyph-name="tbar" unicode="&#x167;" horiz-adv-x="313" 
d="M10 388v11l146 155v-105h135v-61h-135v-98h143v-47h-143v-90q0 -26 1.5 -40.5t8 -29.5t20.5 -21.5t37 -6.5q34 0 91 27v-65q-55 -26 -105 -26q-63 0 -92.5 37.5t-29.5 96.5v118h-101v47h101v98h-77z" />
    <glyph glyph-name="Utilde" unicode="&#x168;" horiz-adv-x="698" 
d="M638 682v-366q0 -72 -8 -114t-30 -79q-29 -51 -91 -91.5t-159 -40.5q-23 0 -48.5 3.5t-62.5 14.5t-72.5 37t-60.5 64q-27 41 -36.5 85t-9.5 121v366h75v-370q0 -75 12.5 -116.5t42.5 -73.5q60 -63 160 -63q72 0 120.5 32.5t70.5 77.5t22 143v370h75zM229 753h-36l3 23.5
t7 26t13.5 28t22.5 18.5t35 9q33 0 89 -24q45 -19 66 -19q15 0 24 9t11 16t4 20h36q0 -52 -25 -79.5t-57 -27.5q-27 0 -72 18q-64 25 -82 25q-32 0 -39 -43z" />
    <glyph glyph-name="utilde" unicode="&#x169;" horiz-adv-x="492" 
d="M427 0h-69v68q-58 -77 -141 -77q-75 0 -118 51t-43 139v268h69v-262q0 -61 26 -98t82 -37q78 0 125 79v318h69v-449zM126 554h-36l3 23.5t7 26t13.5 28t22.5 18.5t35 9q33 0 89 -24q45 -19 66 -19q15 0 24 9t11 16t4 20h36q0 -52 -25 -79.5t-57 -27.5q-27 0 -72 18
q-64 25 -82 25q-32 0 -39 -43z" />
    <glyph glyph-name="Umacron" unicode="&#x16a;" horiz-adv-x="698" 
d="M638 682v-366q0 -72 -8 -114t-30 -79q-29 -51 -91 -91.5t-159 -40.5q-23 0 -48.5 3.5t-62.5 14.5t-72.5 37t-60.5 64q-27 41 -36.5 85t-9.5 121v366h75v-370q0 -75 12.5 -116.5t42.5 -73.5q60 -63 160 -63q72 0 120.5 32.5t70.5 77.5t22 143v370h75zM498 838v-63h-299v63
h299z" />
    <glyph glyph-name="umacron" unicode="&#x16b;" horiz-adv-x="492" 
d="M427 0h-69v68q-58 -77 -141 -77q-75 0 -118 51t-43 139v268h69v-262q0 -61 26 -98t82 -37q78 0 125 79v318h69v-449zM395 639v-63h-299v63h299z" />
    <glyph glyph-name="Ubreve" unicode="&#x16c;" horiz-adv-x="698" 
d="M638 682v-366q0 -72 -8 -114t-30 -79q-29 -51 -91 -91.5t-159 -40.5q-23 0 -48.5 3.5t-62.5 14.5t-72.5 37t-60.5 64q-27 41 -36.5 85t-9.5 121v366h75v-370q0 -75 12.5 -116.5t42.5 -73.5q60 -63 160 -63q72 0 120.5 32.5t70.5 77.5t22 143v370h75zM210 850h53
q26 -66 87 -66q35 0 53 17.5t31 48.5h53q-37 -122 -138 -122q-56 0 -92 36.5t-47 85.5z" />
    <glyph glyph-name="ubreve" unicode="&#x16d;" horiz-adv-x="492" 
d="M427 0h-69v68q-58 -77 -141 -77q-75 0 -118 51t-43 139v268h69v-262q0 -61 26 -98t82 -37q78 0 125 79v318h69v-449zM107 651h53q26 -66 87 -66q35 0 53 17.5t31 48.5h53q-37 -122 -138 -122q-56 0 -92 36.5t-47 85.5z" />
    <glyph glyph-name="Uring" unicode="&#x16e;" horiz-adv-x="698" 
d="M638 682v-366q0 -72 -8 -114t-30 -79q-29 -51 -91 -91.5t-159 -40.5q-23 0 -48.5 3.5t-62.5 14.5t-72.5 37t-60.5 64q-27 41 -36.5 85t-9.5 121v366h75v-370q0 -75 12.5 -116.5t42.5 -73.5q60 -63 160 -63q72 0 120.5 32.5t70.5 77.5t22 143v370h75zM348 724
q-39 0 -66 27t-27 66t27 66.5t66 27.5t66.5 -27.5t27.5 -66.5t-27.5 -66t-66.5 -27zM348 767q21 0 36 14.5t15 35.5t-15 36t-36 15t-35.5 -15t-14.5 -36t14.5 -35.5t35.5 -14.5z" />
    <glyph glyph-name="uring" unicode="&#x16f;" horiz-adv-x="492" 
d="M427 0h-69v68q-58 -77 -141 -77q-75 0 -118 51t-43 139v268h69v-262q0 -61 26 -98t82 -37q78 0 125 79v318h69v-449zM245 525q-39 0 -66 27t-27 66t27 66.5t66 27.5t66.5 -27.5t27.5 -66.5t-27.5 -66t-66.5 -27zM245 568q21 0 36 14.5t15 35.5t-15 36t-36 15t-35.5 -15
t-14.5 -36t14.5 -35.5t35.5 -14.5z" />
    <glyph glyph-name="Uhungarumlaut" unicode="&#x170;" horiz-adv-x="698" 
d="M638 682v-366q0 -72 -8 -114t-30 -79q-29 -51 -91 -91.5t-159 -40.5q-23 0 -48.5 3.5t-62.5 14.5t-72.5 37t-60.5 64q-27 41 -36.5 85t-9.5 121v366h75v-370q0 -75 12.5 -116.5t42.5 -73.5q60 -63 160 -63q72 0 120.5 32.5t70.5 77.5t22 143v370h75zM572 885l-131 -157
h-44l85 157h90zM420 885l-131 -157h-44l85 157h90z" />
    <glyph glyph-name="uhungarumlaut" unicode="&#x171;" horiz-adv-x="492" 
d="M427 0h-69v68q-58 -77 -141 -77q-75 0 -118 51t-43 139v268h69v-262q0 -61 26 -98t82 -37q78 0 125 79v318h69v-449zM449 686l-131 -157h-44l85 157h90zM297 686l-131 -157h-44l85 157h90z" />
    <glyph glyph-name="Uogonek" unicode="&#x172;" horiz-adv-x="698" 
d="M638 682v-366q0 -72 -8 -114t-30 -79q-26 -47 -82.5 -86t-142.5 -45q-32 -42 -32 -67q0 -23 19 -39t45 -16q14 0 36 6v-58q-31 -11 -60 -11q-49 0 -80 26.5t-31 70.5q0 47 43 89q-144 15 -209 117q-27 41 -36.5 85t-9.5 121v366h75v-370q0 -75 12.5 -116.5t42.5 -73.5
q60 -63 160 -63q72 0 120.5 32.5t70.5 77.5t22 143v370h75z" />
    <glyph glyph-name="uogonek" unicode="&#x173;" horiz-adv-x="492" 
d="M467 -112v-52q-40 -10 -59 -10q-34 0 -64 22t-30 67q0 49 44 85v68q-58 -77 -141 -77q-75 0 -118 51t-43 139v268h69v-262q0 -61 26 -98t82 -37q78 0 125 79v318h69v-449h-16q-34 -39 -34 -66q0 -25 18 -38.5t37 -13.5q5 0 35 6z" />
    <glyph glyph-name="Wcircumflex" unicode="&#x174;" horiz-adv-x="1042" 
d="M1039 682l-274 -689h-18l-226 567l-226 -567h-19l-273 689h75l208 -518l208 518h55l208 -518l207 518h75zM559 885l100 -157h-47l-92 98l-92 -98h-46l100 157h77z" />
    <glyph glyph-name="wcircumflex" unicode="&#x175;" horiz-adv-x="718" 
d="M716 449l-196 -458h-26l-135 339l-135 -339h-26l-196 458h71l136 -319l128 319h45l126 -319l136 319h72zM397 686l100 -157h-47l-92 98l-92 -98h-46l100 157h77z" />
    <glyph glyph-name="Ycircumflex" unicode="&#x176;" horiz-adv-x="599" 
d="M596 682l-260 -318v-364h-75v364l-258 318h91l204 -252l207 252h91zM338 885l100 -157h-47l-92 98l-92 -98h-46l100 157h77z" />
    <glyph glyph-name="ycircumflex" unicode="&#x177;" horiz-adv-x="432" 
d="M430 449l-327 -679h-74l155 322l-182 357h75l143 -283l135 283h75zM254 686l100 -157h-47l-92 98l-92 -98h-46l100 157h77z" />
    <glyph glyph-name="Ydieresis" unicode="&#x178;" horiz-adv-x="599" 
d="M596 682l-260 -318v-364h-75v364l-258 318h91l204 -252l207 252h91zM207 851q19 0 32 -13t13 -32t-13 -32t-32 -13t-32 13t-13 32t13 32t32 13zM392 851q19 0 32 -13t13 -32t-13 -32t-32 -13t-32 13t-13 32t13 32t32 13z" />
    <glyph glyph-name="Zacute" unicode="&#x179;" horiz-adv-x="646" 
d="M39 682h581v-9l-472 -607h474v-66h-609v7l474 609h-448v66zM442 885l-134 -157h-44l88 157h90z" />
    <glyph glyph-name="zacute" unicode="&#x17a;" horiz-adv-x="406" 
d="M24 449h371v-9l-266 -376h266v-64h-384v8l266 377h-253v64zM342 686l-134 -157h-44l88 157h90z" />
    <glyph glyph-name="Zdotaccent" unicode="&#x17b;" horiz-adv-x="646" 
d="M39 682h581v-9l-472 -607h474v-66h-609v7l474 609h-448v66zM321 853q20 0 34 -14t14 -34t-14 -34t-34 -14t-34 14t-14 34t14 34t34 14z" />
    <glyph glyph-name="zdotaccent" unicode="&#x17c;" horiz-adv-x="406" 
d="M24 449h371v-9l-266 -376h266v-64h-384v8l266 377h-253v64zM203 652q19 0 32 -13t13 -32t-13 -32t-32 -13t-32 13t-13 32t13 32t32 13z" />
    <glyph glyph-name="Zcaron" unicode="&#x17d;" horiz-adv-x="646" 
d="M39 682h581v-9l-472 -607h474v-66h-609v7l474 609h-448v66zM285 728l-100 157h47l92 -98l92 98h46l-100 -157h-77z" />
    <glyph glyph-name="zcaron" unicode="&#x17e;" horiz-adv-x="406" 
d="M24 449h371v-9l-266 -376h266v-64h-384v8l266 377h-253v64zM165 529l-100 157h47l92 -98l92 98h46l-100 -157h-77z" />
    <glyph glyph-name="uni018f" unicode="&#x18f;" horiz-adv-x="823" 
d="M47 341q0 17 4 51h640q-18 95 -93.5 160.5t-190.5 64.5q-114 0 -237 -67v81q126 56 241 60q162 0 263.5 -103t101.5 -247q0 -151 -106.5 -250.5t-262.5 -99.5q-151 0 -255.5 100t-104.5 250zM406 62q119 0 201 74.5t88 189.5h-568q5 -115 87 -189.5t192 -74.5z" />
    <glyph glyph-name="florin" unicode="&#x192;" horiz-adv-x="552" 
d="M325 387l-88 -470q-13 -70 -43.5 -99t-92.5 -29q-40 0 -93 14l14 63q44 -11 74 -11q36 0 50.5 22.5t27.5 93.5l76 416h-88l11 56h88l17 97q14 78 43 114.5t94 36.5q42 0 98 -22l-13 -60q-45 16 -69 16q-35 0 -51.5 -19.5t-26.5 -72.5l-17 -90h107l-12 -56h-106z" />
    <glyph glyph-name="AEacute" unicode="&#x1fc;" horiz-adv-x="884" 
d="M842 682v-66h-300v-239h293v-66h-293v-245h310v-66h-385v311h-193l-189 -311h-83l415 682h425zM467 377v254l-153 -254h153zM753 885l-134 -157h-44l88 157h90z" />
    <glyph glyph-name="aeacute" unicode="&#x1fd;" horiz-adv-x="671" 
d="M637 233h-283q-3 -55 11 -93.5t38 -56t45 -24.5t40 -7q35 0 71 13.5t45 20l33 23.5v-71q-78 -47 -156 -47q-97 0 -151 70q-92 -70 -166 -70q-61 0 -91.5 35.5t-30.5 80.5q0 24 7 42.5t25 34.5t34 26.5t50.5 23.5t57 20l69.5 21q0 21 -1 34.5t-5.5 32t-13 29t-25 18.5
t-40.5 8q-68 0 -142 -67v78q68 50 147 50q91 0 130 -63l6.5 6.5l8.5 8.5t9.5 9t12 9.5l14 9t17 8.5t18.5 6t21.5 4.5t23.5 1.5q52 0 89 -24.5t53 -62t22.5 -67t6.5 -54.5v-17zM359 283h207q-3 49 -29.5 81.5t-73.5 32.5q-36 0 -67 -28.5t-37 -85.5zM285 84v148l-60 -20
t-46.5 -19t-38.5 -22t-21 -24.5t-9 -32.5q0 -30 23 -51.5t53 -21.5q37 0 99 43zM474 686l-134 -157h-44l88 157h90z" />
    <glyph glyph-name="Oslashacute" unicode="&#x1fe;" horiz-adv-x="823" 
d="M196 55l-57 -64l-41 32l57 65q-108 108 -108 253q0 142 100 246t263 104q127 0 218 -65l57 65l40 -33l-56 -65q107 -104 107 -252q0 -149 -105.5 -249.5t-261.5 -100.5q-115 0 -213 64zM618 536l-373 -424q73 -50 165 -50q121 0 203.5 81t82.5 200q0 113 -78 193z
M205 145l373 425q-69 50 -167 50q-127 0 -205.5 -82.5t-78.5 -197.5q0 -112 78 -195zM540 885l-134 -157h-44l88 157h90z" />
    <glyph glyph-name="oslashacute" unicode="&#x1ff;" horiz-adv-x="552" 
d="M141 34l-56 -63l-33 30l55 62q-65 69 -65 161q0 96 67 165t168 69q78 0 135 -44l55 64l33 -28l-56 -65q65 -66 65 -159q0 -74 -36.5 -129t-88.5 -80.5t-108 -25.5q-74 0 -135 43zM402 337l-220 -255q42 -30 92 -30q74 0 119 50t45 123q0 67 -36 112zM149 112l221 254
q-1 1 -8.5 6t-14 8t-17.5 7.5t-25 7t-30 2.5q-71 0 -116.5 -48.5t-45.5 -123.5q0 -66 36 -113zM405 686l-134 -157h-44l88 157h90z" />
    <glyph glyph-name="uni0218" unicode="&#x218;" horiz-adv-x="458" 
d="M396 646v-85q-84 62 -155 62q-38 0 -65 -12.5t-39.5 -31t-17.5 -34t-5 -27.5q0 -25 10.5 -45t33 -37.5t39 -27t46.5 -24.5q105 -52 143 -92.5t38 -113.5q0 -89 -61.5 -138t-137.5 -49q-90 0 -179 62v92q86 -86 177 -86q64 0 95.5 37t31.5 77q0 39 -29 72t-124 78
q-84 40 -120.5 84.5t-36.5 102.5q0 79 58 130t144 51q78 0 154 -45zM126 -213l3 48q26 -2 41 -2q81 0 81 37q0 39 -102 34l9 48q11 1 33 1q19 0 37.5 -2.5t42.5 -9.5t38.5 -24t14.5 -42q0 -42 -40 -67t-110 -25q-31 0 -48 4z" />
    <glyph glyph-name="uni0219" unicode="&#x219;" horiz-adv-x="375" 
d="M319 420v-69q-75 46 -127 46q-34 0 -55 -17t-21 -41q0 -25 23.5 -42.5t104.5 -59.5q7 -3 10 -5q82 -44 82 -115q0 -44 -36.5 -85t-111.5 -41q-67 0 -144 41v71q84 -51 145 -51q29 0 52.5 16.5t23.5 43.5q0 29 -23.5 48t-76.5 44q-27 13 -43 22t-36 25.5t-29.5 37.5
t-9.5 48q0 47 37.5 84t106.5 37q61 0 128 -38zM101 -181l3 43q16 -2 30 -2q61 0 61 34q0 32 -61 32l12 39q8 1 14 1q36 0 63 -16.5t27 -51.5q0 -34 -25.5 -58.5t-85.5 -24.5q-25 0 -38 4z" />
    <glyph glyph-name="uni0259" unicode="&#x259;" horiz-adv-x="483" 
d="M37 233v16h333q-5 68 -43 108t-98 40q-40 0 -76 -13t-47.5 -21t-31.5 -25v70q23 16 35 23t48 17t80 10q100 0 151.5 -65t52.5 -150q1 -108 -52.5 -179.5t-153.5 -72.5q-103 0 -150.5 67t-47.5 175zM370 199h-262q0 -66 37 -106.5t88 -40.5q54 0 94.5 44.5t42.5 102.5z
" />
    <glyph glyph-name="circumflex" unicode="&#x2c6;" horiz-adv-x="333" 
d="M205 686l100 -157h-47l-92 98l-92 -98h-46l100 157h77z" />
    <glyph glyph-name="caron" unicode="&#x2c7;" horiz-adv-x="333" 
d="M128 529l-100 157h47l92 -98l92 98h46l-100 -157h-77z" />
    <glyph glyph-name="uni02C9" unicode="&#x2c9;" horiz-adv-x="333" 
d="M316 639v-63h-299v63h299z" />
    <glyph glyph-name="breve" unicode="&#x2d8;" horiz-adv-x="333" 
d="M28 651h53q26 -66 87 -66q35 0 53 17.5t31 48.5h53q-37 -122 -138 -122q-56 0 -92 36.5t-47 85.5z" />
    <glyph glyph-name="dotaccent" unicode="&#x2d9;" horiz-adv-x="333" 
d="M167 652q19 0 32 -13t13 -32t-13 -32t-32 -13t-32 13t-13 32t13 32t32 13z" />
    <glyph glyph-name="ring" unicode="&#x2da;" horiz-adv-x="333" 
d="M166 525q-39 0 -66 27t-27 66t27 66.5t66 27.5t66.5 -27.5t27.5 -66.5t-27.5 -66t-66.5 -27zM166 568q21 0 36 14.5t15 35.5t-15 36t-36 15t-35.5 -15t-14.5 -36t14.5 -35.5t35.5 -14.5z" />
    <glyph glyph-name="ogonek" unicode="&#x2db;" horiz-adv-x="333" 
d="M249 -112v-52q-40 -10 -59 -10q-34 0 -64 22t-30 67q0 56 58 95h48q-17 -19 -23.5 -28t-13 -22t-6.5 -26q0 -25 18 -38.5t37 -13.5q5 0 35 6z" />
    <glyph glyph-name="tilde" unicode="&#x2dc;" horiz-adv-x="333" 
d="M47 554h-36l3 23.5t7 26t13.5 28t22.5 18.5t35 9q33 0 89 -24q45 -19 66 -19q15 0 24 9t11 16t4 20h36q0 -52 -25 -79.5t-57 -27.5q-27 0 -72 18q-64 25 -82 25q-32 0 -39 -43z" />
    <glyph glyph-name="hungarumlaut" unicode="&#x2dd;" horiz-adv-x="333" 
d="M391 686l-131 -157h-44l85 157h90zM239 686l-131 -157h-44l85 157h90z" />
    <glyph glyph-name="Delta" unicode="&#x394;" horiz-adv-x="559" 
d="M554 0h-533v37l222 663h92l219 -663v-37zM467 63l-165 504q-5 14 -9.5 34t-5.5 22h-2q-2 -7 -14 -55l-166 -505h362z" />
    <glyph glyph-name="Delta" unicode="&#x2206;" horiz-adv-x="559" 
d="M554 0h-533v37l222 663h92l219 -663v-37zM467 63l-165 504q-5 14 -9.5 34t-5.5 22h-2q-2 -7 -14 -55l-166 -505h362z" />
    <glyph glyph-name="Omega" unicode="&#x3a9;" horiz-adv-x="670" 
d="M614 0h-213v62q136 129 136 313q0 121 -54 196.5t-150 75.5q-95 0 -152 -76t-57 -196q0 -187 137 -313v-62h-213v62h142q-144 127 -144 324q0 140 80.5 233t207.5 93q131 0 206 -89t75 -235q0 -108 -42 -190.5t-103 -135.5h144v-62z" />
    <glyph glyph-name="Omega" unicode="&#x2126;" horiz-adv-x="670" 
d="M614 0h-213v62q136 129 136 313q0 121 -54 196.5t-150 75.5q-95 0 -152 -76t-57 -196q0 -187 137 -313v-62h-213v62h142q-144 127 -144 324q0 140 80.5 233t207.5 93q131 0 206 -89t75 -235q0 -108 -42 -190.5t-103 -135.5h144v-62z" />
    <glyph glyph-name="uni03BC" unicode="&#x3bc;" horiz-adv-x="532" 
d="M375 449h69v-359q2 -29 20 -29q21 0 52 18v-57q-63 -28 -99 -28q-42 0 -42 42v17q-46 -61 -109 -61q-40 0 -67 18.5t-59 56.5v-297h-69v679h69v-317q50 -80 121 -80q52 0 83 41t31 95v261z" />
    <glyph glyph-name="pi" unicode="&#x3c0;" horiz-adv-x="588" 
d="M564 63l16 -55q-23 -15 -66 -15q-61 0 -89 37.5t-28 94.5v312h-181v-304q0 -81 -13 -133h-82q15 58 15 136v301q-48 0 -92 -22l-23 57q54 28 138 28h417v-63h-98v-302q0 -80 54 -80q14 0 32 8z" />
    <glyph glyph-name="Wgrave" unicode="&#x1e80;" horiz-adv-x="1042" 
d="M1039 682l-274 -689h-18l-226 567l-226 -567h-19l-273 689h75l208 -518l208 518h55l208 -518l207 518h75zM401 885h90l89 -157h-44z" />
    <glyph glyph-name="wgrave" unicode="&#x1e81;" horiz-adv-x="718" 
d="M716 449l-196 -458h-26l-135 339l-135 -339h-26l-196 458h71l136 -319l128 319h45l126 -319l136 319h72zM229 686h90l89 -157h-44z" />
    <glyph glyph-name="Wacute" unicode="&#x1e82;" horiz-adv-x="1042" 
d="M1039 682l-274 -689h-18l-226 567l-226 -567h-19l-273 689h75l208 -518l208 518h55l208 -518l207 518h75zM640 885l-134 -157h-44l88 157h90z" />
    <glyph glyph-name="wacute" unicode="&#x1e83;" horiz-adv-x="718" 
d="M716 449l-196 -458h-26l-135 339l-135 -339h-26l-196 458h71l136 -319l128 319h45l126 -319l136 319h72zM488 686l-134 -157h-44l88 157h90z" />
    <glyph glyph-name="Wdieresis" unicode="&#x1e84;" horiz-adv-x="1042" 
d="M1039 682l-274 -689h-18l-226 567l-226 -567h-19l-273 689h75l208 -518l208 518h55l208 -518l207 518h75zM428 851q19 0 32 -13t13 -32t-13 -32t-32 -13t-32 13t-13 32t13 32t32 13zM613 851q19 0 32 -13t13 -32t-13 -32t-32 -13t-32 13t-13 32t13 32t32 13z" />
    <glyph glyph-name="wdieresis" unicode="&#x1e85;" horiz-adv-x="718" 
d="M716 449l-196 -458h-26l-135 339l-135 -339h-26l-196 458h71l136 -319l128 319h45l126 -319l136 319h72zM266 652q19 0 32 -13t13 -32t-13 -32t-32 -13t-32 13t-13 32t13 32t32 13zM451 652q19 0 32 -13t13 -32t-13 -32t-32 -13t-32 13t-13 32t13 32t32 13z" />
    <glyph glyph-name="Ygrave" unicode="&#x1ef2;" horiz-adv-x="599" 
d="M596 682l-260 -318v-364h-75v364l-258 318h91l204 -252l207 252h91zM180 885h90l89 -157h-44z" />
    <glyph glyph-name="ygrave" unicode="&#x1ef3;" horiz-adv-x="432" 
d="M430 449l-327 -679h-74l155 322l-182 357h75l143 -283l135 283h75zM76 686h90l89 -157h-44z" />
    <glyph glyph-name="endash" unicode="&#x2013;" 
d="M-6 259h512v-45h-512v45z" />
    <glyph glyph-name="emdash" unicode="&#x2014;" horiz-adv-x="1000" 
d="M-6 259h1012v-45h-1012v45z" />
    <glyph glyph-name="quoteleft" unicode="&#x2018;" horiz-adv-x="240" 
d="M165 691v-16q-41 -41 -35 -90q44 -14 44 -56q0 -26 -15.5 -42t-34.5 -16q-28 0 -43 23t-15 58q0 16 3.5 33t13 38.5t31 39.5t51.5 28z" />
    <glyph glyph-name="quoteright" unicode="&#x2019;" horiz-adv-x="240" 
d="M75 471v16q41 41 35 90q-44 14 -44 56q0 26 15.5 42t34.5 16q28 0 43 -23t15 -58q0 -16 -3.5 -33t-13 -38.5t-31 -39.5t-51.5 -28z" />
    <glyph glyph-name="quotesinglbase" unicode="&#x201a;" horiz-adv-x="240" 
d="M75 -121v16q41 41 35 90q-44 14 -44 56q0 26 15.5 42t34.5 16q28 0 43 -23t15 -58q0 -16 -3.5 -33t-13 -38.5t-31 -39.5t-51.5 -28z" />
    <glyph glyph-name="quotedblleft" unicode="&#x201c;" horiz-adv-x="414" 
d="M165 691v-16q-41 -41 -35 -90q44 -14 44 -56q0 -26 -15.5 -42t-34.5 -16q-28 0 -43 23t-15 58q0 16 3.5 33t13 38.5t31 39.5t51.5 28zM339 691v-16q-41 -41 -35 -90q44 -14 44 -56q0 -26 -15.5 -42t-34.5 -16q-28 0 -43 23t-15 58q0 16 3.5 33t13 38.5t31 39.5t51.5 28z
" />
    <glyph glyph-name="quotedblright" unicode="&#x201d;" horiz-adv-x="414" 
d="M249 471v16q41 41 35 90q-44 14 -44 56q0 26 15.5 42t34.5 16q28 0 43 -23t15 -58q0 -16 -3.5 -33t-13 -38.5t-31 -39.5t-51.5 -28zM75 471v16q41 41 35 90q-44 14 -44 56q0 26 15.5 42t34.5 16q28 0 43 -23t15 -58q0 -16 -3.5 -33t-13 -38.5t-31 -39.5t-51.5 -28z" />
    <glyph glyph-name="quotedblbase" unicode="&#x201e;" horiz-adv-x="414" 
d="M249 -121v16q41 41 35 90q-44 14 -44 56q0 26 15.5 42t34.5 16q28 0 43 -23t15 -58q0 -16 -3.5 -33t-13 -38.5t-31 -39.5t-51.5 -28zM75 -121v16q41 41 35 90q-44 14 -44 56q0 26 15.5 42t34.5 16q28 0 43 -23t15 -58q0 -16 -3.5 -33t-13 -38.5t-31 -39.5t-51.5 -28z" />
    <glyph glyph-name="dagger" unicode="&#x2020;" horiz-adv-x="490" 
d="M228 368l-21 -4q-21 -3 -43 -7t-48 -7t-39 -3q-51 0 -51 35q0 19 15 29.5t33 10.5q13 0 79 -10t75 -10q-1 6 -6 55.5t-6 58.5q-12 86 -12 107q0 10 2.5 22t12.5 24.5t26 12.5q18 0 28 -14.5t11.5 -25.5t1.5 -20q0 -24 -7 -66q-2 -14 -9 -80t-8 -74l44 6.5t69 9.5t42 4
q19 0 33 -11.5t14 -28.5q0 -35 -51 -35q-13 0 -38.5 3t-48 7l-43 7.5t-21.5 3.5q7 -129 13 -203q15 -210 15 -315q0 -80 -45 -80q-16 0 -26 8t-13.5 24.5t-4.5 27.5t-1 31q0 111 14 288q3 31 14 219z" />
    <glyph glyph-name="daggerdbl" unicode="&#x2021;" horiz-adv-x="490" 
d="M209 -115l19 137q-147 -20 -150 -20q-22 0 -35.5 11.5t-13.5 25.5q0 17 15 27.5t34 10.5q29 0 150 -22q-13 97 -13 168q0 87 14 174q-43 -6 -68 -11q-55 -11 -85 -11q-47 0 -47 37q0 18 14.5 28t33.5 10q7 0 39 -4t68.5 -9.5t44.5 -6.5q-4 40 -13 102q-11 79 -11 100
q0 50 41 50q18 0 28 -12.5t11.5 -22.5t1.5 -19q0 -13 -25 -198q132 20 150 20q49 0 49 -36q0 -19 -14 -29t-32 -10q-43 0 -153 22q11 -110 11 -169q0 -81 -13 -173q17 1 69 10q67 12 84 12q22 0 35 -10t13 -27q0 -19 -16 -28.5t-37 -9.5q-26 0 -148 20q7 -48 22 -165
q0 -3 1.5 -14t1.5 -18q0 -55 -41 -55q-23 0 -32 18t-9 35q0 24 6 62z" />
    <glyph glyph-name="bullet" unicode="&#x2022;" horiz-adv-x="427" 
d="M213 464q51 0 87 -35.5t36 -86.5t-36 -87t-87 -36t-86.5 36t-35.5 87t35.5 86.5t86.5 35.5z" />
    <glyph glyph-name="ellipsis" unicode="&#x2026;" horiz-adv-x="1000" 
d="M167 99q22 0 38 -16t16 -38q0 -23 -15.5 -38.5t-38.5 -15.5t-38.5 15.5t-15.5 38.5t15.5 38.5t38.5 15.5zM500 99q22 0 38 -15.5t16 -38.5t-16 -38.5t-38 -15.5t-38 15.5t-16 38.5t16 38.5t38 15.5zM833 99q23 0 38.5 -15.5t15.5 -38.5t-15.5 -38.5t-38.5 -15.5
t-38.5 15.5t-15.5 38.5q0 22 16 38t38 16z" />
    <glyph glyph-name="perthousand" unicode="&#x2030;" horiz-adv-x="1065" 
d="M882 303q64 0 110 -45.5t46 -110.5t-46 -110.5t-110 -45.5t-110 45.5t-46 110.5t46 110.5t110 45.5zM882 49q40 0 69 28.5t29 69.5t-29 69.5t-69 28.5t-69 -28.5t-29 -69.5t29 -69.5t69 -28.5zM514 303q64 0 110 -45.5t46 -110.5t-46 -110.5t-110 -45.5t-110 45.5
t-46 110.5t46 110.5t110 45.5zM514 49q40 0 69 28.5t29 69.5t-29 69.5t-69 28.5t-69 -28.5t-29 -69.5t29 -69.5t69 -28.5zM184 691q64 0 110 -45.5t46 -110.5t-46 -110.5t-110 -45.5t-110 45.5t-46 110.5t46 110.5t110 45.5zM184 437q40 0 69 28.5t29 69.5t-29 69.5
t-69 28.5t-69 -28.5t-29 -69.5t29 -69.5t69 -28.5zM630 682l-499 -682h-63l499 682h63z" />
    <glyph glyph-name="guilsinglleft" unicode="&#x2039;" horiz-adv-x="300" 
d="M260 0h-68l-168 224l168 225h68l-168 -225z" />
    <glyph glyph-name="guilsinglright" unicode="&#x203a;" horiz-adv-x="300" 
d="M40 449h68l168 -225l-168 -224h-68l168 224z" />
    <glyph glyph-name="fraction" unicode="&#x2044;" horiz-adv-x="188" 
d="M366 691l-491 -718h-53l491 718h53z" />
    <glyph glyph-name="fraction" unicode="&#x2215;" horiz-adv-x="188" 
d="M366 691l-491 -718h-53l491 718h53z" />
    <glyph glyph-name="Euro" unicode="&#x20ac;" horiz-adv-x="539" 
d="M467 313l-15 -69h-285q15 -85 58 -133.5t107 -48.5q85 0 170 72v-81q-81 -62 -168 -62q-91 0 -156 70.5t-86 182.5h-79l15 69h56v26v30h-71l15 69h65q22 115 89 184t148 69q79 0 168 -57v-81q-85 67 -164 67q-64 0 -107 -49t-59 -133h319l-15 -69h-313v-30v-26h308z" />
    <glyph glyph-name="afii61289" unicode="&#x2113;" horiz-adv-x="464" 
d="M353 92l27 -41q-57 -64 -123 -64q-114 0 -114 148v115l-57 -64l-32 37l89 101v233q0 85 31 128t85 43q47 0 70.5 -32t23.5 -72q0 -131 -140 -305v-185q0 -90 59 -90q37 0 81 48zM299 617q0 53 -36 53q-50 0 -50 -110v-161q38 51 62 109.5t24 108.5z" />
    <glyph glyph-name="trademark" unicode="&#x2122;" horiz-adv-x="970" 
d="M269 284h-58v347h-130v51h318v-51h-130v-347zM444 284v398h87l100 -318l100 318h86v-398h-53v345l-110 -345h-47l-110 347v-347h-53z" />
    <glyph glyph-name="estimated" unicode="&#x212e;" horiz-adv-x="637" 
d="M589 278h-430v-191q62 -62 152 -62q132 0 205 126l36 -21q-48 -71 -103.5 -106.5t-137.5 -35.5q-122 0 -196.5 83t-74.5 207q0 125 74 208t198 83q126 0 199 -82t78 -209zM465 315v153q-63 65 -154 65q-90 0 -152 -63v-155h306z" />
    <glyph glyph-name="onethird" unicode="&#x2153;" horiz-adv-x="833" 
d="M689 691l-491 -718h-53l490 718h54zM223 686v-354h-56v354h56zM554 15v48q49 -26 95 -26q35 0 54.5 17.5t19.5 44.5q0 64 -95 64v42q89 0 89 57q0 55 -72 55q-40 0 -84 -24v45q37 21 86 21q69 0 97.5 -29t28.5 -66q0 -57 -58 -77q34 -9 49 -35t15 -51q0 -52 -40.5 -79
t-86.5 -27q-50 0 -98 20z" />
    <glyph glyph-name="twothirds" unicode="&#x2154;" horiz-adv-x="833" 
d="M695 691l-491 -718h-53l490 718h54zM554 15v48q49 -26 95 -26q35 0 54.5 17.5t19.5 44.5q0 64 -95 64v42q89 0 89 57q0 55 -72 55q-40 0 -84 -24v45q37 21 86 21q69 0 97.5 -29t28.5 -66q0 -57 -58 -77q34 -9 49 -35t15 -51q0 -52 -40.5 -79t-86.5 -27q-50 0 -98 20z
M136 374h167v-42h-270v4q69 69 115 119q30 33 45.5 60t17.5 37.5t2 26.5q0 29 -19.5 49.5t-55.5 20.5q-51 0 -96 -53v60q1 0 8.5 5.5t11.5 8t14 7.5t19 7.5t22 4.5t27 2q64 0 94.5 -33t30.5 -73t-30.5 -88t-102.5 -123z" />
    <glyph glyph-name="oneeighth" unicode="&#x215b;" horiz-adv-x="833" 
d="M689 691l-491 -718h-53l490 718h54zM223 686v-354h-56v354h56zM724 182q55 -29 55 -85q0 -43 -36 -72.5t-91 -29.5q-54 0 -91 30t-37 72q0 55 57 85q-48 32 -48 78q0 40 35 69.5t85 29.5q49 0 84 -28.5t35 -70.5q0 -48 -48 -78zM717 260q0 24 -18.5 40t-46.5 16
t-46.5 -16t-18.5 -41q0 -26 21 -41t45 -15q26 0 45 15.5t19 41.5zM723 101q0 23 -20 40.5t-52 17.5q-33 0 -52 -18.5t-19 -42.5q0 -25 20.5 -42.5t52.5 -17.5q33 0 51.5 18t18.5 45z" />
    <glyph glyph-name="threeeighths" unicode="&#x215c;" horiz-adv-x="833" 
d="M689 691l-491 -718h-53l490 718h54zM724 182q55 -29 55 -85q0 -43 -36 -72.5t-91 -29.5q-54 0 -91 30t-37 72q0 55 57 85q-48 32 -48 78q0 40 35 69.5t85 29.5q49 0 84 -28.5t35 -70.5q0 -48 -48 -78zM717 260q0 24 -18.5 40t-46.5 16t-46.5 -16t-18.5 -41q0 -26 21 -41
t45 -15q26 0 45 15.5t19 41.5zM723 101q0 23 -20 40.5t-52 17.5q-33 0 -52 -18.5t-19 -42.5q0 -25 20.5 -42.5t52.5 -17.5q33 0 51.5 18t18.5 45zM64 347v48q49 -26 95 -26q35 0 54.5 17.5t19.5 44.5q0 64 -95 64v42q89 0 89 57q0 55 -72 55q-40 0 -84 -24v45q37 21 86 21
q69 0 97.5 -29t28.5 -66q0 -57 -58 -77q34 -9 49 -35t15 -51q0 -52 -40.5 -79t-86.5 -27q-50 0 -98 20z" />
    <glyph glyph-name="fiveeighths" unicode="&#x215d;" horiz-adv-x="833" 
d="M689 691l-491 -718h-53l490 718h54zM724 182q55 -29 55 -85q0 -43 -36 -72.5t-91 -29.5q-54 0 -91 30t-37 72q0 55 57 85q-48 32 -48 78q0 40 35 69.5t85 29.5q49 0 84 -28.5t35 -70.5q0 -48 -48 -78zM717 260q0 24 -18.5 40t-46.5 16t-46.5 -16t-18.5 -41q0 -26 21 -41
t45 -15q26 0 45 15.5t19 41.5zM723 101q0 23 -20 40.5t-52 17.5q-33 0 -52 -18.5t-19 -42.5q0 -25 20.5 -42.5t52.5 -17.5q33 0 51.5 18t18.5 45zM270 687v-41h-134v-93q57 2 94 -15q62 -29 62 -96q0 -48 -38 -81.5t-100 -33.5q-51 0 -102 24v49q55 -30 97 -30q35 0 60.5 19
t25.5 52q0 28 -19 46t-38 22.5t-38 4.5q-31 0 -56 -8v181h186z" />
    <glyph glyph-name="seveneighths" unicode="&#x215e;" horiz-adv-x="833" 
d="M680 691l-491 -718h-53l490 718h54zM724 182q55 -29 55 -85q0 -43 -36 -72.5t-91 -29.5q-54 0 -91 30t-37 72q0 55 57 85q-48 32 -48 78q0 40 35 69.5t85 29.5q49 0 84 -28.5t35 -70.5q0 -48 -48 -78zM717 260q0 24 -18.5 40t-46.5 16t-46.5 -16t-18.5 -41q0 -26 21 -41
t45 -15q26 0 45 15.5t19 41.5zM723 101q0 23 -20 40.5t-52 17.5q-33 0 -52 -18.5t-19 -42.5q0 -25 20.5 -42.5t52.5 -17.5q33 0 51.5 18t18.5 45zM329 688l-187 -361l-49 18l156 301h-195v42h275z" />
    <glyph glyph-name="partialdiff" unicode="&#x2202;" horiz-adv-x="537" 
d="M497 493q0 -92 -25 -196q-14 -57 -36.5 -108.5t-54.5 -98t-77.5 -73.5t-97.5 -27q-74 0 -120 50t-46 132q0 139 76.5 232.5t177.5 93.5q45 0 76.5 -19.5t46.5 -48.5h2q5 53 5 73q0 164 -129 164q-44 0 -86 -24l-19 53q45 30 114 30q90 0 141.5 -59.5t51.5 -173.5z
M409 358q-24 83 -110 83q-74 0 -129 -81.5t-55 -191.5q0 -55 25.5 -87t67.5 -32q69 0 122 83.5t79 225.5z" />
    <glyph glyph-name="product" unicode="&#x220f;" horiz-adv-x="667" 
d="M587 -230h-75v865h-357v-865h-75v930h507v-930z" />
    <glyph glyph-name="summation" unicode="&#x2211;" horiz-adv-x="589" 
d="M548 -230h-524v34l304 435l-282 421v40h478v-62h-385l266 -398l-285 -408h428v-62z" />
    <glyph glyph-name="minus" unicode="&#x2212;" horiz-adv-x="667" 
d="M68 373h531v-65h-531v65z" />
    <glyph glyph-name="uni2219" unicode="&#x2219;" horiz-adv-x="240" 
d="M120 395q22 0 38 -15.5t16 -38.5t-16 -38.5t-38 -15.5t-38 15.5t-16 38.5t16 38.5t38 15.5z" />
    <glyph glyph-name="radical" unicode="&#x221a;" horiz-adv-x="461" 
d="M473 728l-173 -740h-64l-127 341l-52 -30l-25 45l113 67l121 -325l149 642h58z" />
    <glyph glyph-name="infinity" unicode="&#x221e;" horiz-adv-x="723" 
d="M674 293q0 -66 -42.5 -111.5t-106.5 -45.5q-53 0 -96 29t-70 75h-2q-69 -104 -160 -104q-67 0 -110.5 43t-43.5 111q0 69 42.5 112.5t108.5 43.5q100 0 163 -103h2q68 103 162 103q65 0 109 -43t44 -110zM609 293q0 42 -23.5 69t-67.5 27q-71 0 -130 -97q53 -99 129 -99
q45 0 68.5 28.5t23.5 71.5zM329 292q-25 43 -60 70t-70 27q-46 0 -69 -28.5t-23 -71.5q0 -42 26 -69t66 -27q71 0 130 99z" />
    <glyph glyph-name="integral" unicode="&#x222b;" horiz-adv-x="462" 
d="M398 736l-16 -56q-16 8 -41 8q-77 0 -77 -96v-654q0 -74 -37.5 -117.5t-106.5 -43.5q-40 0 -64 11l15 56q21 -7 41 -7q78 0 78 96v655q0 74 38 117t108 43q45 0 62 -12z" />
    <glyph glyph-name="approxequal" unicode="&#x2248;" horiz-adv-x="621" 
d="M541 420q-56 -83 -132 -83q-53 0 -105 32q-54 33 -91 33q-50 0 -89 -65l-43 46q57 83 132 83q55 0 104 -32q54 -33 91 -33q50 0 90 65zM541 205q-55 -83 -132 -83q-53 0 -105 32q-54 33 -91 33q-51 0 -89 -66l-43 47q57 83 132 83q52 0 104 -32q54 -33 91 -33q51 0 90 65
z" />
    <glyph glyph-name="notequal" unicode="&#x2260;" horiz-adv-x="621" 
d="M523 154h-246l-60 -129h-68l61 129h-112v64h142l71 152h-213v64h242l62 135h69l-63 -135h115v-64h-145l-71 -152h216v-64z" />
    <glyph glyph-name="lessequal" unicode="&#x2264;" horiz-adv-x="621" 
d="M523 0h-425v64h425v-64zM523 133l-425 197v45l425 196v-70l-329 -148v-2l329 -149v-69z" />
    <glyph glyph-name="greaterequal" unicode="&#x2265;" horiz-adv-x="621" 
d="M523 0h-425v64h425v-64zM523 330l-425 -196v69l330 148v2l-330 149v69l425 -196v-45z" />
    <glyph glyph-name="lozenge" unicode="&#x25ca;" horiz-adv-x="516" 
d="M270 700l185 -350l-185 -350h-39l-184 349l184 351h39zM393 350l-142 270l-142 -270l141 -270z" />
    <glyph glyph-name="one.alt" unicode="&#xe000;" 
d="M277 691h37v-691h-75v583l-161 -134l-28 58z" />
    <glyph glyph-name="zero.fitted" unicode="&#xf639;" 
d="M31 341q0 162 63.5 256t155.5 94t155.5 -94t63.5 -256t-63.5 -256t-155.5 -94t-155.5 94t-63.5 256zM394 341q0 117 -39 198.5t-105 81.5t-105 -81.5t-39 -198.5t39 -198.5t104 -81.5q67 0 106 81t39 199z" />
    <glyph glyph-name="two.fitted" unicode="&#xf63a;" horiz-adv-x="475" 
d="M167 71h288v-71h-433v4q92 97 175 207q68 91 97 152.5t29 118.5q0 69 -43 103.5t-93 34.5q-82 0 -153 -84v91q75 64 161 64q85 0 144 -57.5t59 -143.5q0 -49 -17.5 -100.5t-56.5 -110.5t-70 -100t-87 -108z" />
    <glyph glyph-name="three.fitted" unicode="&#xf63b;" horiz-adv-x="446" 
d="M24 28v76q73 -42 153 -42q52 0 95.5 32t43.5 95q0 21 -7 41t-23.5 42t-51.5 35.5t-85 13.5v69q43 0 74.5 11.5t46 26t22.5 34.5t8.5 28.5t0.5 17.5q0 51 -37.5 82.5t-95.5 31.5q-69 0 -132 -39v71q64 37 137 37q89 0 146 -48t57 -129q0 -36 -11 -64.5t-31.5 -46.5
t-32.5 -25.5t-31 -16.5q121 -45 121 -169q0 -95 -65 -148t-147 -53q-84 0 -155 37z" />
    <glyph glyph-name="four.fitted" unicode="&#xf63c;" 
d="M384 691v-386h86v-61h-86v-244h-71v244h-300v30l343 417h28zM122 305h191v233z" />
    <glyph glyph-name="five.fitted" unicode="&#xf63d;" horiz-adv-x="463" 
d="M381 682v-66h-226v-195q20 2 36 2q108 0 167.5 -61.5t59.5 -150.5q0 -93 -61.5 -156.5t-161.5 -63.5q-81 0 -163 44v79q85 -52 157 -52q68 0 111 44t43 105q0 60 -45 103t-127 43q-53 0 -85 -11v336h295z" />
    <glyph glyph-name="six.fitted" unicode="&#xf63e;" horiz-adv-x="486" 
d="M319 691l44 -56q-98 -79 -130 -112q-74 -78 -101 -182q62 41 129 41q83 0 137 -57.5t54 -134.5q0 -89 -59 -144t-141 -55q-97 0 -154.5 67t-57.5 173q0 71 21.5 138t50.5 113t72.5 92t71 68.5t63.5 48.5zM117 261q-2 -22 -2 -42q0 -64 36 -111.5t100 -47.5q52 0 89 34
t37 91q0 52 -32.5 89.5t-99.5 37.5q-72 0 -128 -51z" />
    <glyph glyph-name="seven.fitted" unicode="&#xf63f;" horiz-adv-x="478" 
d="M464 682l-310 -691l-66 29l267 591h-334v71h443z" />
    <glyph glyph-name="eight.fitted" unicode="&#xf640;" 
d="M358 352q50 -30 74 -69t24 -98q0 -82 -58.5 -138t-147.5 -56q-87 0 -146.5 56.5t-59.5 137.5q0 103 99 167q-88 65 -88 152q0 78 58 132.5t137 54.5t137 -54.5t58 -132.5q0 -98 -87 -152zM250 383q50 0 85 35.5t35 84.5t-35 84t-85 35t-85 -35t-35 -84t35 -84.5t85 -35.5
zM250 312q-62 0 -96.5 -38t-34.5 -87q0 -54 37 -89.5t94 -35.5q59 0 95 38t36 89q0 56 -38 89.5t-93 33.5z" />
    <glyph glyph-name="nine.fitted" unicode="&#xf641;" horiz-adv-x="485" 
d="M168 -9l-44 56q98 79 130 112q74 78 101 182q-62 -41 -129 -41q-83 0 -137 57.5t-54 134.5q0 89 59 144t141 55q97 0 154.5 -67t57.5 -173q0 -71 -21.5 -138t-50.5 -113t-72.5 -92t-71 -68.5t-63.5 -48.5zM370 421q2 22 2 42q0 64 -36 111.5t-100 47.5q-52 0 -89 -34
t-37 -91q0 -52 32.5 -89.5t99.5 -37.5q72 0 128 51z" />
    <glyph glyph-name="zero.taboldstyle" unicode="&#xf643;" 
d="M250 458q93 0 156 -63.5t63 -171.5q0 -110 -65.5 -171t-153.5 -61q-98 0 -159 66t-61 167q0 103 61.5 168.5t158.5 65.5zM100 224q0 -49 15.5 -84.5t41 -52t48.5 -23.5t47 -7q61 0 104 42.5t43 126.5q0 71 -41 118.5t-109 47.5q-62 0 -105.5 -44t-43.5 -124z" />
    <glyph glyph-name="one.taboldstyle" unicode="&#xf644;" 
d="M338 0h-70v347l-125 -92l-31 49l199 154h27v-458z" />
    <glyph glyph-name="two.taboldstyle" unicode="&#xf645;" 
d="M216 64h210v-64h-365v4q110 99 160 149q95 95 95 163q0 36 -22 57t-66 21q-41 0 -75 -20t-75 -58v79q25 19 39.5 28.5t48 22t67.5 12.5q71 0 112 -40t41 -92q0 -33 -13 -66.5t-43.5 -71.5t-50.5 -59.5z" />
    <glyph glyph-name="three.taboldstyle" unicode="&#xf646;" 
d="M60 449h365l-176 -301q85 -11 128 -61.5t43 -113.5q0 -84 -63 -143.5t-155 -59.5q-73 0 -142 42v72q72 -54 147 -54q64 0 103.5 39.5t39.5 96.5q0 67 -58.5 103.5t-146.5 21.5l169 294h-254v64z" />
    <glyph glyph-name="four.taboldstyle" unicode="&#xf647;" 
d="M311 0h-306v16l361 442h15v-400h109v-58h-109v-230h-70v230zM119 58h192v247z" />
    <glyph glyph-name="five.taboldstyle" unicode="&#xf648;" 
d="M452 449v-64h-224l-38 -229q117 3 177.5 -54t60.5 -133q0 -83 -61.5 -141t-151.5 -58q-81 0 -167 48v78q87 -62 158 -62q73 0 112.5 37t39.5 93q0 70 -71.5 107.5t-173.5 18.5l57 359h282z" />
    <glyph glyph-name="six.taboldstyle" unicode="&#xf649;" 
d="M323 691l42 -53q-102 -67 -159 -147t-74 -152q71 42 132 42q78 0 134.5 -53t56.5 -138q0 -84 -57 -141.5t-143 -57.5q-90 0 -150.5 64t-60.5 176q0 61 14.5 118t42 103.5t53.5 82t64 70t57 50t48 36.5zM119 262q-16 -82 25 -143.5t111 -61.5q55 0 92.5 36t37.5 92
q0 53 -37 91.5t-100 38.5q-61 0 -129 -53z" />
    <glyph glyph-name="seven.taboldstyle" unicode="&#xf64a;" 
d="M458 449l-310 -679l-64 26l278 589h-310v64h406z" />
    <glyph glyph-name="eight.taboldstyle" unicode="&#xf64b;" 
d="M337 352q119 -58 119 -168q0 -79 -58 -136t-147 -57q-90 0 -149 57t-59 134q0 112 120 170q-21 13 -34.5 23.5t-32 29.5t-28.5 44.5t-10 56.5q0 74 56 129.5t138 55.5q80 0 136 -54.5t56 -128.5q0 -97 -107 -156zM250 625q-52 0 -87 -36.5t-35 -83.5q0 -53 38 -86.5
t86 -33.5q49 0 85.5 34t36.5 86q0 46 -35 83t-89 37zM248 315q-59 0 -95.5 -37.5t-36.5 -89.5q0 -54 38.5 -90.5t96.5 -36.5q59 0 95.5 37t36.5 91q0 57 -39 91.5t-96 34.5z" />
    <glyph glyph-name="nine.taboldstyle" unicode="&#xf64c;" 
d="M175 -230l-43 52q180 113 235 289q-68 -43 -132 -43q-78 0 -134.5 53.5t-56.5 137.5q0 85 57 142t143 57q91 0 151 -64.5t60 -174.5q0 -51 -12 -101t-29.5 -88t-45.5 -76.5t-50.5 -63t-54.5 -52t-48 -39.5zM380 187q9 27 3 62t-19 67t-45 54t-75 22q-55 0 -92.5 -36
t-37.5 -92q0 -57 38 -93.5t98 -36.5q66 0 130 53z" />
    <glyph glyph-name="zero.denominator" unicode="&#xf655;" horiz-adv-x="323" 
d="M296 176q0 -86 -39.5 -133.5t-95.5 -47.5q-58 0 -96.5 47.5t-38.5 131.5q0 81 37.5 133t98.5 52q56 0 95 -48.5t39 -134.5zM240 177q0 60 -22 100t-57 40t-57.5 -39t-22.5 -101q0 -67 23 -103.5t56 -36.5q38 0 59 41.5t21 98.5z" />
    <glyph glyph-name="one.denominator" unicode="&#xf656;" horiz-adv-x="323" 
d="M190 354v-354h-56v354h56z" />
    <glyph glyph-name="two.denominator" unicode="&#xf657;" horiz-adv-x="323" 
d="M131 42h167v-42h-270v4q69 69 115 119q30 33 45.5 60t17.5 37.5t2 26.5q0 29 -19.5 49.5t-55.5 20.5q-51 0 -96 -53v60q1 0 8.5 5.5t11.5 8t14 7.5t19 7.5t22 4.5t27 2q64 0 94.5 -33t30.5 -73t-30.5 -88t-102.5 -123z" />
    <glyph glyph-name="three.denominator" unicode="&#xf658;" horiz-adv-x="323" 
d="M40 15v48q49 -26 95 -26q35 0 54.5 17.5t19.5 44.5q0 64 -95 64v42q89 0 89 57q0 55 -72 55q-40 0 -84 -24v45q37 21 86 21q69 0 97.5 -29t28.5 -66q0 -57 -58 -77q34 -9 49 -35t15 -51q0 -52 -40.5 -79t-86.5 -27q-50 0 -98 20z" />
    <glyph glyph-name="four.denominator" unicode="&#xf659;" horiz-adv-x="323" 
d="M251 359v-197h51v-38h-51v-124h-54v124h-177v19l205 216h26zM197 162v108l-103 -108h103z" />
    <glyph glyph-name="five.denominator" unicode="&#xf65a;" horiz-adv-x="323" 
d="M259 355v-41h-134v-93q57 2 94 -15q62 -29 62 -96q0 -48 -38 -81.5t-100 -33.5q-51 0 -102 24v49q55 -30 97 -30q35 0 60.5 19t25.5 52q0 28 -19 46t-38 22.5t-38 4.5q-31 0 -56 -8v181h186z" />
    <glyph glyph-name="six.denominator" unicode="&#xf65b;" horiz-adv-x="323" 
d="M205 361q6 -6 16.5 -17.5t15.5 -16.5q-61 -34 -100 -82q-18 -20 -35 -59q36 15 67 15q49 0 84 -28.5t35 -73.5t-35.5 -74.5t-87.5 -29.5t-91.5 31t-39.5 96q0 133 171 239zM91 135q-2 -20 -1 -32q3 -32 24.5 -49t49.5 -17q30 0 49.5 16.5t19.5 43.5q0 26 -20.5 44
t-51.5 18q-36 0 -70 -24z" />
    <glyph glyph-name="seven.denominator" unicode="&#xf65c;" horiz-adv-x="323" 
d="M299 356l-187 -361l-49 18l156 301h-195v42h275z" />
    <glyph glyph-name="eight.denominator" unicode="&#xf65d;" horiz-adv-x="323" 
d="M234 182q55 -29 55 -85q0 -43 -36 -72.5t-91 -29.5q-54 0 -91 30t-37 72q0 55 57 85q-48 32 -48 78q0 40 35 69.5t85 29.5q49 0 84 -28.5t35 -70.5q0 -48 -48 -78zM227 260q0 24 -18.5 40t-46.5 16t-46.5 -16t-18.5 -41q0 -26 21 -41t45 -15q26 0 45 15.5t19 41.5z
M233 101q0 23 -20 40.5t-52 17.5q-33 0 -52 -18.5t-19 -42.5q0 -25 20.5 -42.5t52.5 -17.5q33 0 51.5 18t18.5 45z" />
    <glyph glyph-name="nine.denominator" unicode="&#xf65e;" horiz-adv-x="323" 
d="M116 -7l-31 34q22 14 37.5 25t36.5 29t36.5 41t24.5 48q-35 -15 -68 -15q-49 0 -83.5 29t-34.5 72q0 42 34.5 73t88.5 31q53 0 92.5 -33.5t39.5 -94.5q0 -73 -51 -135.5t-122 -103.5zM231 219q0 2 0.5 8.5t0.5 12.5t-1 11q-2 26 -18.5 46.5t-54.5 20.5q-33 0 -51 -18.5
t-18 -42.5q0 -26 20.5 -43.5t49.5 -17.5q39 0 72 23z" />
    <glyph glyph-name="zero.numerator" unicode="&#xf661;" horiz-adv-x="323" 
d="M296 508q0 -86 -39.5 -133.5t-95.5 -47.5q-58 0 -96.5 47.5t-38.5 131.5q0 81 37.5 133t98.5 52q56 0 95 -48.5t39 -134.5zM240 509q0 60 -22 100t-57 40t-57.5 -39t-22.5 -101q0 -67 23 -103.5t56 -36.5q38 0 59 41.5t21 98.5z" />
    <glyph glyph-name="one.numerator" unicode="&#xf662;" horiz-adv-x="323" 
d="M190 686v-354h-56v354h56z" />
    <glyph glyph-name="two.numerator" unicode="&#xf663;" horiz-adv-x="323" 
d="M131 374h167v-42h-270v4q69 69 115 119q30 33 45.5 60t17.5 37.5t2 26.5q0 29 -19.5 49.5t-55.5 20.5q-51 0 -96 -53v60q1 0 8.5 5.5t11.5 8t14 7.5t19 7.5t22 4.5t27 2q64 0 94.5 -33t30.5 -73t-30.5 -88t-102.5 -123z" />
    <glyph glyph-name="three.numerator" unicode="&#xf664;" horiz-adv-x="323" 
d="M40 347v48q49 -26 95 -26q35 0 54.5 17.5t19.5 44.5q0 64 -95 64v42q89 0 89 57q0 55 -72 55q-40 0 -84 -24v45q37 21 86 21q69 0 97.5 -29t28.5 -66q0 -57 -58 -77q34 -9 49 -35t15 -51q0 -52 -40.5 -79t-86.5 -27q-50 0 -98 20z" />
    <glyph glyph-name="four.numerator" unicode="&#xf665;" horiz-adv-x="323" 
d="M251 691v-197h51v-38h-51v-124h-54v124h-177v19l205 216h26zM197 494v108l-103 -108h103z" />
    <glyph glyph-name="five.numerator" unicode="&#xf666;" horiz-adv-x="323" 
d="M259 687v-41h-134v-93q57 2 94 -15q62 -29 62 -96q0 -48 -38 -81.5t-100 -33.5q-51 0 -102 24v49q55 -30 97 -30q35 0 60.5 19t25.5 52q0 28 -19 46t-38 22.5t-38 4.5q-31 0 -56 -8v181h186z" />
    <glyph glyph-name="six.numerator" unicode="&#xf667;" horiz-adv-x="323" 
d="M205 693q6 -5 16.5 -17t15.5 -17q-61 -34 -100 -82q-18 -20 -35 -59q36 15 67 15q49 0 84 -28.5t35 -73.5t-35.5 -74.5t-87.5 -29.5t-91.5 31t-39.5 96q0 133 171 239zM91 467q-2 -20 -1 -32q3 -32 24.5 -49t49.5 -17q30 0 49.5 16.5t19.5 43.5q0 26 -20.5 44t-51.5 18
q-36 0 -70 -24z" />
    <glyph glyph-name="seven.numerator" unicode="&#xf668;" horiz-adv-x="323" 
d="M299 688l-187 -361l-49 18l156 301h-195v42h275z" />
    <glyph glyph-name="eight.numerator" unicode="&#xf669;" horiz-adv-x="323" 
d="M234 514q55 -29 55 -85q0 -43 -36 -72.5t-91 -29.5q-54 0 -91 30t-37 72q0 55 57 85q-48 32 -48 78q0 40 35 69.5t85 29.5q49 0 84 -28.5t35 -70.5q0 -48 -48 -78zM227 592q0 24 -18.5 40t-46.5 16t-46.5 -16t-18.5 -41q0 -26 21 -41t45 -15q26 0 45 15.5t19 41.5z
M233 433q0 23 -20 40.5t-52 17.5q-33 0 -52 -18.5t-19 -42.5q0 -25 20.5 -42.5t52.5 -17.5q33 0 51.5 18t18.5 45z" />
    <glyph glyph-name="nine.numerator" unicode="&#xf66a;" horiz-adv-x="323" 
d="M116 325l-31 34q22 14 37.5 25t36.5 29t36.5 41t24.5 48q-35 -15 -68 -15q-49 0 -83.5 29t-34.5 72q0 42 34.5 73t88.5 31q53 0 92.5 -33.5t39.5 -94.5q0 -73 -51 -135.5t-122 -103.5zM231 551q0 2 0.5 8.5t0.5 12.5t-1 11q-2 26 -18.5 46.5t-54.5 20.5q-33 0 -51 -18.5
t-18 -42.5q0 -26 20.5 -43.5t49.5 -17.5q39 0 72 23z" />
    <glyph glyph-name="abreve.sc" unicode="&#xf66d;" horiz-adv-x="480" 
d="M343 132h-209l-57 -132h-70l210 483h44l212 -483h-70zM160 190h157l-80 193zM98 651h53q26 -66 87 -66q35 0 53 17.5t31 48.5h53q-37 -122 -138 -122q-56 0 -92 36.5t-47 85.5z" />
    <glyph glyph-name="amacron.sc" unicode="&#xf66e;" horiz-adv-x="480" 
d="M343 132h-209l-57 -132h-70l210 483h44l212 -483h-70zM160 190h157l-80 193zM386 639v-63h-299v63h299z" />
    <glyph glyph-name="aogonek.sc" unicode="&#xf66f;" horiz-adv-x="480" 
d="M512 -112v-52q-40 -10 -59 -10q-34 0 -64 22t-30 67q0 49 44 85l-60 132h-209l-57 -132h-70l210 483h44l212 -483h-17q-34 -39 -34 -66q0 -25 18 -38.5t37 -13.5q5 0 35 6zM160 190h157l-80 193z" />
    <glyph glyph-name="aeacute.sc" unicode="&#xf670;" horiz-adv-x="629" 
d="M322 152h-153l-84 -152h-78l284 483h298v-60h-200v-151h195v-60h-195v-152h206v-60h-273v152zM204 212h118v210zM545 686l-134 -157h-44l88 157h90z" />
    <glyph glyph-name="cacute.sc" unicode="&#xf671;" horiz-adv-x="496" 
d="M459 447v-74q-92 52 -164 52q-87 0 -134.5 -54.5t-47.5 -130.5q0 -49 17.5 -86t46 -57t57.5 -30t57 -10q79 0 173 57v-74q-79 -49 -174 -49q-106 0 -177.5 71.5t-71.5 176.5q0 109 73.5 179.5t171.5 70.5q83 0 173 -42zM406 686l-134 -157h-44l88 157h90z" />
    <glyph glyph-name="ccaron.sc" unicode="&#xf672;" horiz-adv-x="496" 
d="M459 447v-74q-92 52 -164 52q-87 0 -134.5 -54.5t-47.5 -130.5q0 -49 17.5 -86t46 -57t57.5 -30t57 -10q79 0 173 57v-74q-79 -49 -174 -49q-106 0 -177.5 71.5t-71.5 176.5q0 109 73.5 179.5t171.5 70.5q83 0 173 -42zM248 529l-100 157h47l92 -98l92 98h46l-100 -157
h-77z" />
    <glyph glyph-name="ccircumflex.sc" unicode="&#xf673;" horiz-adv-x="496" 
d="M459 447v-74q-92 52 -164 52q-87 0 -134.5 -54.5t-47.5 -130.5q0 -49 17.5 -86t46 -57t57.5 -30t57 -10q79 0 173 57v-74q-79 -49 -174 -49q-106 0 -177.5 71.5t-71.5 176.5q0 109 73.5 179.5t171.5 70.5q83 0 173 -42zM325 686l100 -157h-47l-92 98l-92 -98h-46l100 157
h77z" />
    <glyph glyph-name="cdotaccent.sc" unicode="&#xf674;" horiz-adv-x="496" 
d="M459 447v-74q-92 52 -164 52q-87 0 -134.5 -54.5t-47.5 -130.5q0 -49 17.5 -86t46 -57t57.5 -30t57 -10q79 0 173 57v-74q-79 -49 -174 -49q-106 0 -177.5 71.5t-71.5 176.5q0 109 73.5 179.5t171.5 70.5q83 0 173 -42zM286 652q19 0 32 -13t13 -32t-13 -32t-32 -13
t-32 13t-13 32t13 32t32 13z" />
    <glyph glyph-name="dcaron.sc" unicode="&#xf675;" horiz-adv-x="531" 
d="M61 0v483h157q74 0 129.5 -22t85.5 -59t44 -76.5t14 -81.5q0 -104 -71.5 -174t-201.5 -70h-157zM126 423v-363h94q95 0 147 48.5t52 133.5t-55 133t-144 48h-94zM198 529l-100 157h47l92 -98l92 98h46l-100 -157h-77z" />
    <glyph glyph-name="dcroat.sc" unicode="&#xf676;" horiz-adv-x="531" 
d="M1 214v56h60v213h157q74 0 129.5 -22t85.5 -59t44 -76.5t14 -81.5q0 -104 -71.5 -174t-201.5 -70h-157v214h-60zM126 423v-153h142v-56h-142v-154h94q95 0 147 48.5t52 133.5t-55 133t-144 48h-94z" />
    <glyph glyph-name="ebreve.sc" unicode="&#xf677;" horiz-adv-x="365" 
d="M330 483v-60h-202v-149h196v-60h-196v-154h208v-60h-275v483h269zM56 651h53q26 -66 87 -66q35 0 53 17.5t31 48.5h53q-37 -122 -138 -122q-56 0 -92 36.5t-47 85.5z" />
    <glyph glyph-name="ecaron.sc" unicode="&#xf678;" horiz-adv-x="365" 
d="M330 483v-60h-202v-149h196v-60h-196v-154h208v-60h-275v483h269zM154 529l-100 157h47l92 -98l92 98h46l-100 -157h-77z" />
    <glyph glyph-name="edotaccent.sc" unicode="&#xf679;" horiz-adv-x="365" 
d="M330 483v-60h-202v-149h196v-60h-196v-154h208v-60h-275v483h269zM200 652q19 0 32 -13t13 -32t-13 -32t-32 -13t-32 13t-13 32t13 32t32 13z" />
    <glyph glyph-name="emacron.sc" unicode="&#xf67a;" horiz-adv-x="365" 
d="M330 483v-60h-202v-149h196v-60h-196v-154h208v-60h-275v483h269zM345 639v-63h-299v63h299z" />
    <glyph glyph-name="eng.sc" unicode="&#xf67b;" horiz-adv-x="510" 
d="M390 132v117q0 24 -0.5 36t-3.5 37.5t-10.5 39.5t-20.5 30.5t-35 24.5t-52 8q-29 0 -52 -7t-40 -21t-26.5 -24.5t-21.5 -28.5v-344h-67v483h67v-59q63 65 146 65q57 0 100.5 -30t63.5 -79q18 -40 18 -127v-123q0 -71 -32.5 -105t-85.5 -34q-18 0 -33 2l-10 60
q26 -2 33 -2q33 0 47.5 19t14.5 62z" />
    <glyph glyph-name="eogonek.sc" unicode="&#xf67c;" horiz-adv-x="365" 
d="M336 -112v-52q-40 -10 -59 -10q-34 0 -64 22t-30 67q0 49 44 85h-166v483h269v-60h-202v-149h196v-60h-196v-154h208v-60h-56q-34 -39 -34 -66q0 -25 18 -38.5t37 -13.5q5 0 35 6z" />
    <glyph glyph-name="gbreve.sc" unicode="&#xf67d;" horiz-adv-x="521" 
d="M461 446v-74q-86 53 -169 53q-71 0 -124.5 -48.5t-53.5 -135.5q0 -50 19 -88.5t48 -58.5t56.5 -29.5t51.5 -9.5q61 0 115 23v99h-92v60h158v-201q-90 -45 -176 -45q-110 0 -181 73t-71 176t70 176t184 73q73 0 165 -43zM136 651h53q26 -66 87 -66q35 0 53 17.5t31 48.5
h53q-37 -122 -138 -122q-56 0 -92 36.5t-47 85.5z" />
    <glyph glyph-name="gcircumflex.sc" unicode="&#xf67e;" horiz-adv-x="521" 
d="M461 446v-74q-86 53 -169 53q-71 0 -124.5 -48.5t-53.5 -135.5q0 -50 19 -88.5t48 -58.5t56.5 -29.5t51.5 -9.5q61 0 115 23v99h-92v60h158v-201q-90 -45 -176 -45q-110 0 -181 73t-71 176t70 176t184 73q73 0 165 -43zM317 686l100 -157h-47l-92 98l-92 -98h-46l100 157
h77z" />
    <glyph glyph-name="gcommaaccent.sc" unicode="&#xf67f;" horiz-adv-x="521" 
d="M182 -213l3 48q26 -2 41 -2q81 0 81 37q0 39 -102 34l9 48q11 1 33 1q19 0 37.5 -2.5t42.5 -9.5t38.5 -24t14.5 -42q0 -42 -40 -67t-110 -25q-31 0 -48 4zM461 446v-74q-86 53 -169 53q-71 0 -124.5 -48.5t-53.5 -135.5q0 -50 19 -88.5t48 -58.5t56.5 -29.5t51.5 -9.5
q61 0 115 23v99h-92v60h158v-201q-90 -45 -176 -45q-110 0 -181 73t-71 176t70 176t184 73q73 0 165 -43z" />
    <glyph glyph-name="gdotaccent.sc" unicode="&#xf680;" horiz-adv-x="521" 
d="M461 446v-74q-86 53 -169 53q-71 0 -124.5 -48.5t-53.5 -135.5q0 -50 19 -88.5t48 -58.5t56.5 -29.5t51.5 -9.5q61 0 115 23v99h-92v60h158v-201q-90 -45 -176 -45q-110 0 -181 73t-71 176t70 176t184 73q73 0 165 -43zM292 652q19 0 32 -13t13 -32t-13 -32t-32 -13
t-32 13t-13 32t13 32t32 13z" />
    <glyph glyph-name="hbar.sc" unicode="&#xf681;" horiz-adv-x="517" 
d="M61 483h67v-86h261v86h67v-86h52v-56h-52v-341h-67v213h-261v-213h-67v341h-52v56h52v86zM128 273h261v68h-261v-68z" />
    <glyph glyph-name="hcircumflex.sc" unicode="&#xf682;" horiz-adv-x="517" 
d="M61 483h67v-210h261v210h67v-483h-67v213h-261v-213h-67v483zM295 686l100 -157h-47l-92 98l-92 -98h-46l100 157h77z" />
    <glyph glyph-name="ibreve.sc" unicode="&#xf683;" horiz-adv-x="188" 
d="M127 483v-483h-67v483h67zM-43 651h53q26 -66 87 -66q35 0 53 17.5t31 48.5h53q-37 -122 -138 -122q-56 0 -92 36.5t-47 85.5z" />
    <glyph glyph-name="ij.sc" unicode="&#xf684;" horiz-adv-x="376" 
d="M127 483v-483h-67v483h67zM250 27v456h67v-479q0 -84 -37.5 -116t-84.5 -32q-22 0 -31 3l-6 55h27q65 0 65 113z" />
    <glyph glyph-name="imacron.sc" unicode="&#xf685;" horiz-adv-x="188" 
d="M127 483v-483h-67v483h67zM243 639v-63h-299v63h299z" />
    <glyph glyph-name="iogonek.sc" unicode="&#xf686;" horiz-adv-x="188" 
d="M169 -112v-52q-40 -10 -59 -10q-34 0 -64 22t-30 67q0 49 44 85v483h67v-483h-14q-34 -39 -34 -66q0 -25 18 -38.5t37 -13.5q5 0 35 6z" />
    <glyph glyph-name="itilde.sc" unicode="&#xf687;" horiz-adv-x="188" 
d="M127 483v-483h-67v483h67zM-26 554h-36l3 23.5t7 26t13.5 28t22.5 18.5t35 9q33 0 89 -24q45 -19 66 -19q15 0 24 9t11 16t4 20h36q0 -52 -25 -79.5t-57 -27.5q-27 0 -72 18q-64 25 -82 25q-32 0 -39 -43z" />
    <glyph glyph-name="jcircumflex.sc" unicode="&#xf688;" horiz-adv-x="188" 
d="M62 27v456h67v-479q0 -84 -37.5 -116t-84.5 -32q-22 0 -31 3l-6 55h27q65 0 65 113zM132 686l100 -157h-47l-92 98l-92 -98h-46l100 157h77z" />
    <glyph glyph-name="kcommaaccent.sc" unicode="&#xf689;" horiz-adv-x="441" 
d="M134 -213l3 48q26 -2 41 -2q81 0 81 37q0 39 -102 34l9 48q11 1 33 1q19 0 37.5 -2.5t42.5 -9.5t38.5 -24t14.5 -42q0 -42 -40 -67t-110 -25q-31 0 -48 4zM60 483h67v-216l191 216h85l-210 -229l246 -254h-93l-219 224v-224h-67v483z" />
    <glyph glyph-name="lacute.sc" unicode="&#xf68a;" horiz-adv-x="354" 
d="M61 483h67v-423h214v-60h-281v483zM265 686l-134 -157h-44l88 157h90z" />
    <glyph glyph-name="lcaron.sc" unicode="&#xf68b;" horiz-adv-x="354" 
d="M212 269v16q41 41 35 90q-44 14 -44 56q0 26 15.5 42t34.5 16q27 0 42.5 -23t15.5 -58q0 -16 -3.5 -33t-13 -38.5t-31 -39.5t-51.5 -28zM61 483h67v-423h214v-60h-281v483z" />
    <glyph glyph-name="lcommaaccent.sc" unicode="&#xf68c;" horiz-adv-x="354" 
d="M98 -213l3 48q26 -2 41 -2q81 0 81 37q0 39 -102 34l9 48q11 1 33 1q19 0 37.5 -2.5t42.5 -9.5t38.5 -24t14.5 -42q0 -42 -40 -67t-110 -25q-31 0 -48 4zM61 483h67v-423h214v-60h-281v483z" />
    <glyph glyph-name="ldot.sc" unicode="&#xf68d;" horiz-adv-x="354" 
d="M61 483h67v-423h214v-60h-281v483zM236 315q19 0 32 -13t13 -32t-13 -32t-32 -13t-32 13t-13 32t13 32t32 13z" />
    <glyph glyph-name="nacute.sc" unicode="&#xf68e;" horiz-adv-x="550" 
d="M116 483l308 -370v370h67v-483h-57l-308 370v-370h-67v483h57zM395 686l-134 -157h-44l88 157h90z" />
    <glyph glyph-name="ncaron.sc" unicode="&#xf68f;" horiz-adv-x="550" 
d="M116 483l308 -370v370h67v-483h-57l-308 370v-370h-67v483h57zM239 529l-100 157h47l92 -98l92 98h46l-100 -157h-77z" />
    <glyph glyph-name="ncommaaccent.sc" unicode="&#xf690;" horiz-adv-x="550" 
d="M184 -213l3 48q26 -2 41 -2q81 0 81 37q0 39 -102 34l9 48q11 1 33 1q19 0 37.5 -2.5t42.5 -9.5t38.5 -24t14.5 -42q0 -42 -40 -67t-110 -25q-31 0 -48 4zM116 483l308 -370v370h67v-483h-57l-308 370v-370h-67v483h57z" />
    <glyph glyph-name="obreve.sc" unicode="&#xf691;" horiz-adv-x="583" 
d="M543 243q0 -104 -71 -178t-182 -74t-180.5 73.5t-69.5 175.5q0 103 70 176t181 73q110 0 181 -73t71 -173zM112 241q0 -74 50.5 -130t128.5 -56q75 0 127.5 55t52.5 131q0 74 -51 129t-128 55q-79 0 -129.5 -54.5t-50.5 -129.5zM154 651h53q26 -66 87 -66q35 0 53 17.5
t31 48.5h53q-37 -122 -138 -122q-56 0 -92 36.5t-47 85.5z" />
    <glyph glyph-name="ohungarumlaut.sc" unicode="&#xf692;" horiz-adv-x="583" 
d="M543 243q0 -104 -71 -178t-182 -74t-180.5 73.5t-69.5 175.5q0 103 70 176t181 73q110 0 181 -73t71 -173zM112 241q0 -74 50.5 -130t128.5 -56q75 0 127.5 55t52.5 131q0 74 -51 129t-128 55q-79 0 -129.5 -54.5t-50.5 -129.5zM501 686l-131 -157h-44l85 157h90z
M349 686l-131 -157h-44l85 157h90z" />
    <glyph glyph-name="omacron.sc" unicode="&#xf693;" horiz-adv-x="583" 
d="M543 243q0 -104 -71 -178t-182 -74t-180.5 73.5t-69.5 175.5q0 103 70 176t181 73q110 0 181 -73t71 -173zM112 241q0 -74 50.5 -130t128.5 -56q75 0 127.5 55t52.5 131q0 74 -51 129t-128 55q-79 0 -129.5 -54.5t-50.5 -129.5zM441 639v-63h-299v63h299z" />
    <glyph glyph-name="oslashacute.sc" unicode="&#xf694;" horiz-adv-x="583" 
d="M208 76q40 -21 83 -21q77 0 128.5 54.5t51.5 131.5q0 74 -51 129zM166 106l212 296q-36 23 -86 23q-80 0 -130 -58t-50 -125q0 -75 54 -136zM169 21l-22 -30h-63l42 59q-37 28 -61.5 81t-24.5 109q0 41 15.5 83.5t44.5 80t79 61.5t112 24q66 0 127 -32l23 32h63l-44 -62
q83 -73 83 -184q0 -114 -75.5 -183t-177.5 -69q-15 0 -27 0.5t-22.5 2.5t-17.5 3.5t-15.5 5.5t-12.5 5.5t-13.5 6t-12.5 6.5zM420 686l-134 -157h-44l88 157h90z" />
    <glyph glyph-name="racute.sc" unicode="&#xf695;" horiz-adv-x="434" 
d="M59 0v483h112q94 0 134.5 -37.5t40.5 -94.5q0 -46 -25 -76.5t-60 -42.5q18 -12 40.5 -41.5t34 -47.5l36.5 -60q33 -56 58 -83h-82l-44 72l-45 70q-13 18 -21.5 28t-33 25.5t-50.5 15.5h-28v-211h-67zM126 423v-152h35q39 0 64.5 7.5t35 21.5t12.5 24t3 24q0 75 -115 75
h-35zM315 686l-134 -157h-44l88 157h90z" />
    <glyph glyph-name="rcaron.sc" unicode="&#xf696;" horiz-adv-x="434" 
d="M59 0v483h112q94 0 134.5 -37.5t40.5 -94.5q0 -46 -25 -76.5t-60 -42.5q18 -12 40.5 -41.5t34 -47.5l36.5 -60q33 -56 58 -83h-82l-44 72l-45 70q-13 18 -21.5 28t-33 25.5t-50.5 15.5h-28v-211h-67zM126 423v-152h35q39 0 64.5 7.5t35 21.5t12.5 24t3 24q0 75 -115 75
h-35zM158 529l-100 157h47l92 -98l92 98h46l-100 -157h-77z" />
    <glyph glyph-name="rcommaaccent.sc" unicode="&#xf697;" horiz-adv-x="434" 
d="M138 -213l3 48q26 -2 41 -2q81 0 81 37q0 39 -102 34l9 48q11 1 33 1q19 0 37.5 -2.5t42.5 -9.5t38.5 -24t14.5 -42q0 -42 -40 -67t-110 -25q-31 0 -48 4zM59 0v483h112q94 0 134.5 -37.5t40.5 -94.5q0 -46 -25 -76.5t-60 -42.5q18 -12 40.5 -41.5t34 -47.5l36.5 -60
q33 -56 58 -83h-82l-44 72l-45 70q-13 18 -21.5 28t-33 25.5t-50.5 15.5h-28v-211h-67zM126 423v-152h35q39 0 64.5 7.5t35 21.5t12.5 24t3 24q0 75 -115 75h-35z" />
    <glyph glyph-name="sacute.sc" unicode="&#xf698;" horiz-adv-x="344" 
d="M291 460v-73q-53 38 -107 38q-41 0 -61 -19.5t-20 -43.5q0 -22 15 -39t65 -43q74 -38 100.5 -71t26.5 -81q0 -62 -41.5 -99.5t-98.5 -37.5q-65 0 -128 41v79q67 -54 122 -54q41 0 60.5 21.5t19.5 47.5q0 15 -5 26.5t-27.5 30.5t-65.5 40q-63 31 -85 63t-22 72
q0 57 39.5 94t102.5 37q57 0 110 -29zM305 686l-134 -157h-44l88 157h90z" />
    <glyph glyph-name="scedilla.sc" unicode="&#xf699;" horiz-adv-x="344" 
d="M291 460v-73q-53 38 -107 38q-41 0 -61 -19.5t-20 -43.5q0 -22 15 -39t65 -43q74 -38 100.5 -71t26.5 -81q0 -57 -34 -93t-85 -42l-11 -29q76 -4 76 -66q0 -101 -184 -89l4 48q107 -1 107 39q0 32 -78 32l29 66q-47 7 -92 38v79q67 -54 122 -54q41 0 60.5 21.5t19.5 47.5
q0 15 -5 26.5t-27.5 30.5t-65.5 40q-63 31 -85 63t-22 72q0 57 39.5 94t102.5 37q57 0 110 -29z" />
    <glyph glyph-name="scircumflex.sc" unicode="&#xf69a;" horiz-adv-x="344" 
d="M291 460v-73q-53 38 -107 38q-41 0 -61 -19.5t-20 -43.5q0 -22 15 -39t65 -43q74 -38 100.5 -71t26.5 -81q0 -62 -41.5 -99.5t-98.5 -37.5q-65 0 -128 41v79q67 -54 122 -54q41 0 60.5 21.5t19.5 47.5q0 15 -5 26.5t-27.5 30.5t-65.5 40q-63 31 -85 63t-22 72
q0 57 39.5 94t102.5 37q57 0 110 -29zM209 686l100 -157h-47l-92 98l-92 -98h-46l100 157h77z" />
    <glyph glyph-name="scommaaccent.sc" unicode="&#xf69b;" horiz-adv-x="344" 
d="M74 -213l3 48q26 -2 41 -2q81 0 81 37q0 39 -102 34l9 48q11 1 33 1q19 0 37.5 -2.5t42.5 -9.5t38.5 -24t14.5 -42q0 -42 -40 -67t-110 -25q-31 0 -48 4zM291 460v-73q-53 38 -107 38q-41 0 -61 -19.5t-20 -43.5q0 -22 15 -39t65 -43q74 -38 100.5 -71t26.5 -81
q0 -62 -41.5 -99.5t-98.5 -37.5q-65 0 -128 41v79q67 -54 122 -54q41 0 60.5 21.5t19.5 47.5q0 15 -5 26.5t-27.5 30.5t-65.5 40q-63 31 -85 63t-22 72q0 57 39.5 94t102.5 37q57 0 110 -29z" />
    <glyph glyph-name="tbar.sc" unicode="&#xf69c;" horiz-adv-x="427" 
d="M411 483v-60h-164v-158h136v-56h-136v-209h-67v209h-136v56h136v158h-164v60h395z" />
    <glyph glyph-name="tcaron.sc" unicode="&#xf69d;" horiz-adv-x="427" 
d="M411 483v-60h-164v-423h-67v423h-164v60h395zM174 529l-100 157h47l92 -98l92 98h46l-100 -157h-77z" />
    <glyph glyph-name="tcommaaccent.sc" unicode="&#xf69e;" horiz-adv-x="427" 
d="M121 -213l3 48q26 -2 41 -2q81 0 81 37q0 39 -102 34l9 48q11 1 33 1q19 0 37.5 -2.5t42.5 -9.5t38.5 -24t14.5 -42q0 -42 -40 -67t-110 -25q-31 0 -48 4zM411 483v-60h-164v-423h-67v423h-164v60h395z" />
    <glyph glyph-name="ubreve.sc" unicode="&#xf69f;" horiz-adv-x="503" 
d="M51 483h67v-273q0 -79 38.5 -116t94.5 -37q61 0 97.5 36.5t36.5 116.5v273h67v-267q0 -111 -52.5 -168t-147.5 -57q-93 0 -147 57.5t-54 167.5v267zM114 651h53q26 -66 87 -66q35 0 53 17.5t31 48.5h53q-37 -122 -138 -122q-56 0 -92 36.5t-47 85.5z" />
    <glyph glyph-name="uhungarumlaut.sc" unicode="&#xf6a0;" horiz-adv-x="503" 
d="M51 483h67v-273q0 -79 38.5 -116t94.5 -37q61 0 97.5 36.5t36.5 116.5v273h67v-267q0 -111 -52.5 -168t-147.5 -57q-93 0 -147 57.5t-54 167.5v267zM451 686l-131 -157h-44l85 157h90zM299 686l-131 -157h-44l85 157h90z" />
    <glyph glyph-name="umacron.sc" unicode="&#xf6a1;" horiz-adv-x="503" 
d="M51 483h67v-273q0 -79 38.5 -116t94.5 -37q61 0 97.5 36.5t36.5 116.5v273h67v-267q0 -111 -52.5 -168t-147.5 -57q-93 0 -147 57.5t-54 167.5v267zM403 639v-63h-299v63h299z" />
    <glyph glyph-name="uogonek.sc" unicode="&#xf6a2;" horiz-adv-x="503" 
d="M339 -112v-52q-40 -10 -59 -10q-34 0 -64 22t-30 67q0 46 36 78q-80 8 -125.5 65t-45.5 158v267h67v-273q0 -79 38.5 -116t94.5 -37q61 0 97.5 36.5t36.5 116.5v273h67v-267q0 -103 -46 -160t-129 -64q-28 -33 -28 -58t18 -38.5t37 -13.5q5 0 35 6z" />
    <glyph glyph-name="uring.sc" unicode="&#xf6a3;" horiz-adv-x="503" 
d="M51 483h67v-273q0 -79 38.5 -116t94.5 -37q61 0 97.5 36.5t36.5 116.5v273h67v-267q0 -111 -52.5 -168t-147.5 -57q-93 0 -147 57.5t-54 167.5v267zM251 525q-39 0 -66 27t-27 66t27 66.5t66 27.5t66.5 -27.5t27.5 -66.5t-27.5 -66t-66.5 -27zM251 568q21 0 36 14.5
t15 35.5t-15 36t-36 15t-35.5 -15t-14.5 -36t14.5 -35.5t35.5 -14.5z" />
    <glyph glyph-name="utilde.sc" unicode="&#xf6a4;" horiz-adv-x="503" 
d="M51 483h67v-273q0 -79 38.5 -116t94.5 -37q61 0 97.5 36.5t36.5 116.5v273h67v-267q0 -111 -52.5 -168t-147.5 -57q-93 0 -147 57.5t-54 167.5v267zM132 554h-36l3 23.5t7 26t13.5 28t22.5 18.5t35 9q33 0 89 -24q45 -19 66 -19q15 0 24 9t11 16t4 20h36q0 -52 -25 -79.5
t-57 -27.5q-27 0 -72 18q-64 25 -82 25q-32 0 -39 -43z" />
    <glyph glyph-name="wacute.sc" unicode="&#xf6a5;" horiz-adv-x="735" 
d="M391 483l131 -342l132 342h73l-193 -486h-25l-142 370l-141 -370h-25l-193 486h72l132 -342l132 342h47zM485 686l-134 -157h-44l88 157h90z" />
    <glyph glyph-name="wcircumflex.sc" unicode="&#xf6a6;" horiz-adv-x="735" 
d="M391 483l131 -342l132 342h73l-193 -486h-25l-142 370l-141 -370h-25l-193 486h72l132 -342l132 342h47zM406 686l100 -157h-47l-92 98l-92 -98h-46l100 157h77z" />
    <glyph glyph-name="wdieresis.sc" unicode="&#xf6a7;" horiz-adv-x="735" 
d="M391 483l131 -342l132 342h73l-193 -486h-25l-142 370l-141 -370h-25l-193 486h72l132 -342l132 342h47zM276 652q19 0 32 -13t13 -32t-13 -32t-32 -13t-32 13t-13 32t13 32t32 13zM461 652q19 0 32 -13t13 -32t-13 -32t-32 -13t-32 13t-13 32t13 32t32 13z" />
    <glyph glyph-name="wgrave.sc" unicode="&#xf6a8;" horiz-adv-x="735" 
d="M391 483l131 -342l132 342h73l-193 -486h-25l-142 370l-141 -370h-25l-193 486h72l132 -342l132 342h47zM248 686h90l89 -157h-44z" />
    <glyph glyph-name="ycircumflex.sc" unicode="&#xf6a9;" horiz-adv-x="439" 
d="M5 483h80l134 -192l135 192h80l-182 -255v-228h-67v228zM257 686l100 -157h-47l-92 98l-92 -98h-46l100 157h77z" />
    <glyph glyph-name="ygrave.sc" unicode="&#xf6aa;" horiz-adv-x="439" 
d="M5 483h80l134 -192l135 192h80l-182 -255v-228h-67v228zM108 686h90l89 -157h-44z" />
    <glyph glyph-name="zacute.sc" unicode="&#xf6ab;" horiz-adv-x="464" 
d="M441 0h-427v10l310 413h-285v60h402v-11l-308 -412h308v-60zM365 686l-134 -157h-44l88 157h90z" />
    <glyph glyph-name="zdotaccent.sc" unicode="&#xf6ac;" horiz-adv-x="464" 
d="M441 0h-427v10l310 413h-285v60h402v-11l-308 -412h308v-60zM233 652q19 0 32 -13t13 -32t-13 -32t-32 -13t-32 13t-13 32t13 32t32 13z" />
    <glyph glyph-name="idotaccent.sc" unicode="&#xf6ad;" horiz-adv-x="188" 
d="M127 483v-483h-67v483h67zM94 652q19 0 32 -13t13 -32t-13 -32t-32 -13t-32 13t-13 32t13 32t32 13z" />
    <glyph glyph-name="one.fitted" unicode="&#xf6d6;" horiz-adv-x="218" 
d="M146 682v-682h-75v682h75z" />
    <glyph glyph-name="one.fitted" unicode="&#xf6dc;" horiz-adv-x="218" 
d="M146 682v-682h-75v682h75z" />
    <glyph glyph-name="lslash.sc" unicode="&#xf6f9;" horiz-adv-x="354" 
d="M127 272l102 87v-63l-102 -87v-148h215v-61h-281v152l-56 -46v63l56 46v268h66v-211z" />
    <glyph glyph-name="oe.sc" unicode="&#xf6fa;" horiz-adv-x="638" 
d="M600 483v-60h-200v-150h194v-60h-194v-153h206v-60h-308q-116 0 -188 69t-72 170t68 172.5t191 71.5h303zM333 60v363h-38q-87 0 -136 -53.5t-49 -128.5q0 -80 53 -130.5t132 -50.5h38z" />
    <glyph glyph-name="scaron.sc" unicode="&#xf6fd;" horiz-adv-x="344" 
d="M291 460v-73q-53 38 -107 38q-41 0 -61 -19.5t-20 -43.5q0 -22 15 -39t65 -43q74 -38 100.5 -71t26.5 -81q0 -62 -41.5 -99.5t-98.5 -37.5q-65 0 -128 41v79q67 -54 122 -54q41 0 60.5 21.5t19.5 47.5q0 15 -5 26.5t-27.5 30.5t-65.5 40q-63 31 -85 63t-22 72
q0 57 39.5 94t102.5 37q57 0 110 -29zM134 529l-100 157h47l92 -98l92 98h46l-100 -157h-77z" />
    <glyph glyph-name="zcaron.sc" unicode="&#xf6ff;" horiz-adv-x="464" 
d="M441 0h-427v10l310 413h-285v60h402v-11l-308 -412h308v-60zM194 529l-100 157h47l92 -98l92 98h46l-100 -157h-77z" />
    <glyph glyph-name="ampersand.sc" unicode="&#xf726;" horiz-adv-x="455" 
d="M348 113l99 -113h-85l-56 64q-63 -73 -149 -73q-51 0 -89 34t-38 87q0 75 106 143q-55 65 -55 115q0 47 33.5 83t90.5 36t88.5 -35t31.5 -80q0 -71 -92 -131l73 -84q24 28 42 89h69q-24 -77 -69 -135zM194 288q36 23 51.5 41.5t15.5 43.5q0 21 -15 38t-42 17
q-26 0 -41.5 -16.5t-15.5 -39.5q0 -33 47 -84zM265 109l-88 100q-78 -41 -78 -91q0 -27 17.5 -43.5t46.5 -16.5q53 0 102 51z" />
    <glyph glyph-name="zero.oldstyle" unicode="&#xf730;" horiz-adv-x="503" 
d="M252 458q93 0 156 -63.5t63 -171.5q0 -110 -65.5 -171t-153.5 -61q-98 0 -159 66t-61 167q0 103 61.5 168.5t158.5 65.5zM102 224q0 -49 15.5 -84.5t41 -52t48.5 -23.5t47 -7q61 0 104 42.5t43 126.5q0 71 -41 118.5t-109 47.5q-62 0 -105.5 -44t-43.5 -124z" />
    <glyph glyph-name="one.oldstyle" unicode="&#xf731;" horiz-adv-x="360" 
d="M264 0h-70v347l-125 -92l-31 49l199 154h27v-458z" />
    <glyph glyph-name="two.oldstyle" unicode="&#xf732;" horiz-adv-x="444" 
d="M188 64h210v-64h-365v4q110 99 160 149q95 95 95 163q0 36 -22 57t-66 21q-41 0 -75 -20t-75 -58v79q25 19 39.5 28.5t48 22t67.5 12.5q71 0 112 -40t41 -92q0 -33 -13 -66.5t-43.5 -71.5t-50.5 -59.5z" />
    <glyph glyph-name="three.oldstyle" unicode="&#xf733;" horiz-adv-x="434" 
d="M27 449h365l-176 -301q85 -11 128 -61.5t43 -113.5q0 -84 -63 -143.5t-155 -59.5q-73 0 -142 42v72q72 -54 147 -54q64 0 103.5 39.5t39.5 96.5q0 67 -58.5 103.5t-146.5 21.5l169 294h-254v64z" />
    <glyph glyph-name="four.oldstyle" unicode="&#xf734;" 
d="M312 0h-306v16l361 442h15v-400h109v-58h-109v-230h-70v230zM120 58h192v247z" />
    <glyph glyph-name="five.oldstyle" unicode="&#xf735;" horiz-adv-x="457" 
d="M431 449v-64h-224l-38 -229q117 3 177.5 -54t60.5 -133q0 -83 -61.5 -141t-151.5 -58q-81 0 -167 48v78q87 -62 158 -62q73 0 112.5 37t39.5 93q0 70 -71.5 107.5t-173.5 18.5l57 359h282z" />
    <glyph glyph-name="six.oldstyle" unicode="&#xf736;" horiz-adv-x="475" 
d="M311 691l42 -53q-102 -67 -159 -147t-74 -152q71 42 132 42q78 0 134.5 -53t56.5 -138q0 -84 -57 -141.5t-143 -57.5q-90 0 -150.5 64t-60.5 176q0 61 14.5 118t42 103.5t53.5 82t64 70t57 50t48 36.5zM107 262q-16 -82 25 -143.5t111 -61.5q55 0 92.5 36t37.5 92
q0 53 -37 91.5t-100 38.5q-61 0 -129 -53z" />
    <glyph glyph-name="seven.oldstyle" unicode="&#xf737;" horiz-adv-x="438" 
d="M427 449l-310 -679l-64 26l278 589h-310v64h406z" />
    <glyph glyph-name="eight.oldstyle" unicode="&#xf738;" horiz-adv-x="489" 
d="M332 352q119 -58 119 -168q0 -79 -58 -136t-147 -57q-90 0 -149 57t-59 134q0 112 120 170q-21 13 -34.5 23.5t-32 29.5t-28.5 44.5t-10 56.5q0 74 56 129.5t138 55.5q80 0 136 -54.5t56 -128.5q0 -97 -107 -156zM245 625q-52 0 -87 -36.5t-35 -83.5q0 -53 38 -86.5
t86 -33.5q49 0 85.5 34t36.5 86q0 46 -35 83t-89 37zM243 315q-59 0 -95.5 -37.5t-36.5 -89.5q0 -54 38.5 -90.5t96.5 -36.5q59 0 95.5 37t36.5 91q0 57 -39 91.5t-96 34.5z" />
    <glyph glyph-name="nine.oldstyle" unicode="&#xf739;" horiz-adv-x="475" 
d="M163 -230l-43 52q180 113 235 289q-68 -43 -132 -43q-78 0 -134.5 53.5t-56.5 137.5q0 85 57 142t143 57q91 0 151 -64.5t60 -174.5q0 -51 -12 -101t-29.5 -88t-45.5 -76.5t-50.5 -63t-54.5 -52t-48 -39.5zM368 187q9 27 3 62t-19 67t-45 54t-75 22q-55 0 -92.5 -36
t-37.5 -92q0 -57 38 -93.5t98 -36.5q66 0 130 53z" />
    <glyph glyph-name="a.sc" unicode="&#xf761;" horiz-adv-x="480" 
d="M343 132h-209l-57 -132h-70l210 483h44l212 -483h-70zM160 190h157l-80 193z" />
    <glyph glyph-name="b.sc" unicode="&#xf762;" horiz-adv-x="399" 
d="M61 0v483h112q89 0 126 -37.5t37 -86.5q0 -40 -19.5 -63t-52.5 -42q113 -25 113 -122q0 -61 -45.5 -96.5t-140.5 -35.5h-130zM128 423v-149h34q104 0 104 76q0 17 -3 28t-12.5 22.5t-32.5 17t-60 5.5h-30zM128 214v-154h63q63 0 88.5 19.5t25.5 56.5q0 78 -124 78h-53z
" />
    <glyph glyph-name="c.sc" unicode="&#xf763;" horiz-adv-x="496" 
d="M459 447v-74q-92 52 -164 52q-87 0 -134.5 -54.5t-47.5 -130.5q0 -49 17.5 -86t46 -57t57.5 -30t57 -10q79 0 173 57v-74q-79 -49 -174 -49q-106 0 -177.5 71.5t-71.5 176.5q0 109 73.5 179.5t171.5 70.5q83 0 173 -42z" />
    <glyph glyph-name="d.sc" unicode="&#xf764;" horiz-adv-x="531" 
d="M61 0v483h157q74 0 129.5 -22t85.5 -59t44 -76.5t14 -81.5q0 -104 -71.5 -174t-201.5 -70h-157zM126 423v-363h94q95 0 147 48.5t52 133.5t-55 133t-144 48h-94z" />
    <glyph glyph-name="e.sc" unicode="&#xf765;" horiz-adv-x="365" 
d="M330 483v-60h-202v-149h196v-60h-196v-154h208v-60h-275v483h269z" />
    <glyph glyph-name="f.sc" unicode="&#xf766;" horiz-adv-x="337" 
d="M315 483v-60h-187v-140h178v-60h-178v-223h-67v483h254z" />
    <glyph glyph-name="g.sc" unicode="&#xf767;" horiz-adv-x="521" 
d="M461 446v-74q-86 53 -169 53q-71 0 -124.5 -48.5t-53.5 -135.5q0 -50 19 -88.5t48 -58.5t56.5 -29.5t51.5 -9.5q61 0 115 23v99h-92v60h158v-201q-90 -45 -176 -45q-110 0 -181 73t-71 176t70 176t184 73q73 0 165 -43z" />
    <glyph glyph-name="h.sc" unicode="&#xf768;" horiz-adv-x="517" 
d="M61 483h67v-210h261v210h67v-483h-67v213h-261v-213h-67v483z" />
    <glyph glyph-name="i.sc" unicode="&#xf769;" horiz-adv-x="188" 
d="M127 483v-483h-67v483h67z" />
    <glyph glyph-name="j.sc" unicode="&#xf76a;" horiz-adv-x="188" 
d="M62 27v456h67v-479q0 -84 -37.5 -116t-84.5 -32q-22 0 -31 3l-6 55h27q65 0 65 113z" />
    <glyph glyph-name="k.sc" unicode="&#xf76b;" horiz-adv-x="441" 
d="M60 483h67v-216l191 216h85l-210 -229l246 -254h-93l-219 224v-224h-67v483z" />
    <glyph glyph-name="l.sc" unicode="&#xf76c;" horiz-adv-x="354" 
d="M61 483h67v-423h214v-60h-281v483z" />
    <glyph glyph-name="m.sc" unicode="&#xf76d;" horiz-adv-x="584" 
d="M292 257l177 226h56v-483h-67v366l-159 -206h-13l-160 206v-366h-67v483h56z" />
    <glyph glyph-name="n.sc" unicode="&#xf76e;" horiz-adv-x="550" 
d="M116 483l308 -370v370h67v-483h-57l-308 370v-370h-67v483h57z" />
    <glyph glyph-name="o.sc" unicode="&#xf76f;" horiz-adv-x="583" 
d="M543 243q0 -104 -71 -178t-182 -74t-180.5 73.5t-69.5 175.5q0 103 70 176t181 73q110 0 181 -73t71 -173zM112 241q0 -74 50.5 -130t128.5 -56q75 0 127.5 55t52.5 131q0 74 -51 129t-128 55q-79 0 -129.5 -54.5t-50.5 -129.5z" />
    <glyph glyph-name="p.sc" unicode="&#xf770;" horiz-adv-x="375" 
d="M59 0v483h125q88 0 130 -37.5t42 -98.5q0 -136 -180 -136h-50v-211h-67zM126 423v-152h50q58 0 83 18t25 59q0 38 -23 56.5t-85 18.5h-50z" />
    <glyph glyph-name="q.sc" unicode="&#xf771;" horiz-adv-x="583" 
d="M519 -50l4 -4l-53 -59q-64 12 -112 35t-103 72q-36 4 -72 20.5t-69 45.5t-53.5 76t-20.5 104q0 105 71.5 177t179.5 72q105 0 178.5 -70t73.5 -178q0 -59 -21.5 -106.5t-54 -75t-62.5 -42.5t-55 -19q45 -30 92 -45q42 -12 58 -12q9 0 19 9zM112 241q0 -74 50.5 -130
t128.5 -56q75 0 127.5 55t52.5 131q0 74 -51 129t-128 55q-79 0 -129.5 -54.5t-50.5 -129.5z" />
    <glyph glyph-name="r.sc" unicode="&#xf772;" horiz-adv-x="434" 
d="M59 0v483h112q94 0 134.5 -37.5t40.5 -94.5q0 -46 -25 -76.5t-60 -42.5q18 -12 40.5 -41.5t34 -47.5l36.5 -60q33 -56 58 -83h-82l-44 72l-45 70q-13 18 -21.5 28t-33 25.5t-50.5 15.5h-28v-211h-67zM126 423v-152h35q39 0 64.5 7.5t35 21.5t12.5 24t3 24q0 75 -115 75
h-35z" />
    <glyph glyph-name="s.sc" unicode="&#xf773;" horiz-adv-x="344" 
d="M291 460v-73q-53 38 -107 38q-41 0 -61 -19.5t-20 -43.5q0 -22 15 -39t65 -43q74 -38 100.5 -71t26.5 -81q0 -62 -41.5 -99.5t-98.5 -37.5q-65 0 -128 41v79q67 -54 122 -54q41 0 60.5 21.5t19.5 47.5q0 15 -5 26.5t-27.5 30.5t-65.5 40q-63 31 -85 63t-22 72
q0 57 39.5 94t102.5 37q57 0 110 -29z" />
    <glyph glyph-name="t.sc" unicode="&#xf774;" horiz-adv-x="427" 
d="M411 483v-60h-164v-423h-67v423h-164v60h395z" />
    <glyph glyph-name="u.sc" unicode="&#xf775;" horiz-adv-x="503" 
d="M51 483h67v-273q0 -79 38.5 -116t94.5 -37q61 0 97.5 36.5t36.5 116.5v273h67v-267q0 -111 -52.5 -168t-147.5 -57q-93 0 -147 57.5t-54 167.5v267z" />
    <glyph glyph-name="v.sc" unicode="&#xf776;" horiz-adv-x="434" 
d="M205 -3l-199 486h71l140 -352l140 352h71l-198 -486h-25z" />
    <glyph glyph-name="w.sc" unicode="&#xf777;" horiz-adv-x="735" 
d="M391 483l131 -342l132 342h73l-193 -486h-25l-142 370l-141 -370h-25l-193 486h72l132 -342l132 342h47z" />
    <glyph glyph-name="x.sc" unicode="&#xf778;" horiz-adv-x="510" 
d="M11 0l203 249l-191 234h82l150 -183l149 183h83l-191 -234l202 -249h-82l-161 197l-161 -197h-83z" />
    <glyph glyph-name="y.sc" unicode="&#xf779;" horiz-adv-x="439" 
d="M5 483h80l134 -192l135 192h80l-182 -255v-228h-67v228z" />
    <glyph glyph-name="z.sc" unicode="&#xf77a;" horiz-adv-x="464" 
d="M441 0h-427v10l310 413h-285v60h402v-11l-308 -412h308v-60z" />
    <glyph glyph-name="agrave.sc" unicode="&#xf7e0;" horiz-adv-x="480" 
d="M343 132h-209l-57 -132h-70l210 483h44l212 -483h-70zM160 190h157l-80 193zM112 686h90l89 -157h-44z" />
    <glyph glyph-name="aacute.sc" unicode="&#xf7e1;" horiz-adv-x="480" 
d="M343 132h-209l-57 -132h-70l210 483h44l212 -483h-70zM160 190h157l-80 193zM369 686l-134 -157h-44l88 157h90z" />
    <glyph glyph-name="acircumflex.sc" unicode="&#xf7e2;" horiz-adv-x="480" 
d="M343 132h-209l-57 -132h-70l210 483h44l212 -483h-70zM160 190h157l-80 193zM279 686l100 -157h-47l-92 98l-92 -98h-46l100 157h77z" />
    <glyph glyph-name="atilde.sc" unicode="&#xf7e3;" horiz-adv-x="480" 
d="M343 132h-209l-57 -132h-70l210 483h44l212 -483h-70zM160 190h157l-80 193zM121 554h-36l3 23.5t7 26t13.5 28t22.5 18.5t35 9q33 0 89 -24q45 -19 66 -19q15 0 24 9t11 16t4 20h36q0 -52 -25 -79.5t-57 -27.5q-27 0 -72 18q-64 25 -82 25q-32 0 -39 -43z" />
    <glyph glyph-name="adieresis.sc" unicode="&#xf7e4;" horiz-adv-x="480" 
d="M343 132h-209l-57 -132h-70l210 483h44l212 -483h-70zM160 190h157l-80 193zM148 652q19 0 32 -13t13 -32t-13 -32t-32 -13t-32 13t-13 32t13 32t32 13zM333 652q19 0 32 -13t13 -32t-13 -32t-32 -13t-32 13t-13 32t13 32t32 13z" />
    <glyph glyph-name="aring.sc" unicode="&#xf7e5;" horiz-adv-x="480" 
d="M343 132h-209l-57 -132h-70l210 483h44l212 -483h-70zM160 190h157l-80 193zM240 525q-39 0 -66 27t-27 66t27 66.5t66 27.5t66.5 -27.5t27.5 -66.5t-27.5 -66t-66.5 -27zM240 568q21 0 36 14.5t15 35.5t-15 36t-36 15t-35.5 -15t-14.5 -36t14.5 -35.5t35.5 -14.5z" />
    <glyph glyph-name="ae.sc" unicode="&#xf7e6;" horiz-adv-x="629" 
d="M322 152h-153l-84 -152h-78l284 483h298v-60h-200v-151h195v-60h-195v-152h206v-60h-273v152zM204 212h118v210z" />
    <glyph glyph-name="ccedilla.sc" unicode="&#xf7e7;" horiz-adv-x="496" 
d="M306 -9l-11 -27q76 -4 76 -66q0 -101 -184 -89l4 48q107 -1 107 39q0 32 -78 32l30 67q-89 13 -149 78t-60 166q0 109 73.5 179.5t171.5 70.5q83 0 173 -42v-74q-92 52 -164 52q-86 0 -134 -54t-48 -131q0 -49 17.5 -86t46 -57t57.5 -30t57 -10q79 0 173 57v-74
q-64 -40 -158 -49z" />
    <glyph glyph-name="egrave.sc" unicode="&#xf7e8;" horiz-adv-x="365" 
d="M330 483v-60h-202v-149h196v-60h-196v-154h208v-60h-275v483h269zM54 686h90l89 -157h-44z" />
    <glyph glyph-name="eacute.sc" unicode="&#xf7e9;" horiz-adv-x="365" 
d="M330 483v-60h-202v-149h196v-60h-196v-154h208v-60h-275v483h269zM311 686l-134 -157h-44l88 157h90z" />
    <glyph glyph-name="ecircumflex.sc" unicode="&#xf7ea;" horiz-adv-x="365" 
d="M330 483v-60h-202v-149h196v-60h-196v-154h208v-60h-275v483h269zM236 686l100 -157h-47l-92 98l-92 -98h-46l100 157h77z" />
    <glyph glyph-name="edieresis.sc" unicode="&#xf7eb;" horiz-adv-x="365" 
d="M330 483v-60h-202v-149h196v-60h-196v-154h208v-60h-275v483h269zM105 652q19 0 32 -13t13 -32t-13 -32t-32 -13t-32 13t-13 32t13 32t32 13zM290 652q19 0 32 -13t13 -32t-13 -32t-32 -13t-32 13t-13 32t13 32t32 13z" />
    <glyph glyph-name="igrave.sc" unicode="&#xf7ec;" horiz-adv-x="188" 
d="M134 449v-449h-69v449h69zM-34 686h90l89 -157h-44z" />
    <glyph glyph-name="iacute.sc" unicode="&#xf7ed;" horiz-adv-x="188" 
d="M134 449v-449h-69v449h69zM223 686l-134 -157h-44l88 157h90z" />
    <glyph glyph-name="icircumflex.sc" unicode="&#xf7ee;" horiz-adv-x="188" 
d="M134 449v-449h-69v449h69zM133 686l100 -157h-47l-92 98l-92 -98h-46l100 157h77z" />
    <glyph glyph-name="idieresis.sc" unicode="&#xf7ef;" horiz-adv-x="188" 
d="M134 449v-449h-69v449h69zM2 652q19 0 32 -13t13 -32t-13 -32t-32 -13t-32 13t-13 32t13 32t32 13zM187 652q19 0 32 -13t13 -32t-13 -32t-32 -13t-32 13t-13 32t13 32t32 13z" />
    <glyph glyph-name="eth.sc" unicode="&#xf7f0;" horiz-adv-x="531" 
d="M61 211h-61v65h61v207h157q74 0 129.5 -22t85.5 -59t44 -76.5t14 -81.5q0 -104 -71.5 -174t-201.5 -70h-157v211zM126 276h143v-65h-143v-151h94q95 0 147 48.5t52 133.5t-55 133t-144 48h-94v-147z" />
    <glyph glyph-name="ntilde.sc" unicode="&#xf7f1;" horiz-adv-x="550" 
d="M116 483l308 -370v370h67v-483h-57l-308 370v-370h-67v483h57zM156 554h-36l3 23.5t7 26t13.5 28t22.5 18.5t35 9q33 0 89 -24q45 -19 66 -19q15 0 24 9t11 16t4 20h36q0 -52 -25 -79.5t-57 -27.5q-27 0 -72 18q-64 25 -82 25q-32 0 -39 -43z" />
    <glyph glyph-name="ograve.sc" unicode="&#xf7f2;" horiz-adv-x="583" 
d="M543 243q0 -104 -71 -178t-182 -74t-180.5 73.5t-69.5 175.5q0 103 70 176t181 73q110 0 181 -73t71 -173zM112 241q0 -74 50.5 -130t128.5 -56q75 0 127.5 55t52.5 131q0 74 -51 129t-128 55q-79 0 -129.5 -54.5t-50.5 -129.5zM163 686h90l89 -157h-44z" />
    <glyph glyph-name="oacute.sc" unicode="&#xf7f3;" horiz-adv-x="583" 
d="M543 243q0 -104 -71 -178t-182 -74t-180.5 73.5t-69.5 175.5q0 103 70 176t181 73q110 0 181 -73t71 -173zM112 241q0 -74 50.5 -130t128.5 -56q75 0 127.5 55t52.5 131q0 74 -51 129t-128 55q-79 0 -129.5 -54.5t-50.5 -129.5zM420 686l-134 -157h-44l88 157h90z" />
    <glyph glyph-name="ocircumflex.sc" unicode="&#xf7f4;" horiz-adv-x="583" 
d="M543 243q0 -104 -71 -178t-182 -74t-180.5 73.5t-69.5 175.5q0 103 70 176t181 73q110 0 181 -73t71 -173zM112 241q0 -74 50.5 -130t128.5 -56q75 0 127.5 55t52.5 131q0 74 -51 129t-128 55q-79 0 -129.5 -54.5t-50.5 -129.5zM330 686l100 -157h-47l-92 98l-92 -98h-46
l100 157h77z" />
    <glyph glyph-name="otilde.sc" unicode="&#xf7f5;" horiz-adv-x="583" 
d="M543 243q0 -104 -71 -178t-182 -74t-180.5 73.5t-69.5 175.5q0 103 70 176t181 73q110 0 181 -73t71 -173zM112 241q0 -74 50.5 -130t128.5 -56q75 0 127.5 55t52.5 131q0 74 -51 129t-128 55q-79 0 -129.5 -54.5t-50.5 -129.5zM172 554h-36l3 23.5t7 26t13.5 28
t22.5 18.5t35 9q33 0 89 -24q45 -19 66 -19q15 0 24 9t11 16t4 20h36q0 -52 -25 -79.5t-57 -27.5q-27 0 -72 18q-64 25 -82 25q-32 0 -39 -43z" />
    <glyph glyph-name="odieresis.sc" unicode="&#xf7f6;" horiz-adv-x="583" 
d="M543 243q0 -104 -71 -178t-182 -74t-180.5 73.5t-69.5 175.5q0 103 70 176t181 73q110 0 181 -73t71 -173zM112 241q0 -74 50.5 -130t128.5 -56q75 0 127.5 55t52.5 131q0 74 -51 129t-128 55q-79 0 -129.5 -54.5t-50.5 -129.5zM199 652q19 0 32 -13t13 -32t-13 -32
t-32 -13t-32 13t-13 32t13 32t32 13zM384 652q19 0 32 -13t13 -32t-13 -32t-32 -13t-32 13t-13 32t13 32t32 13z" />
    <glyph glyph-name="oslash.sc" unicode="&#xf7f8;" horiz-adv-x="583" 
d="M208 76q40 -21 83 -21q77 0 128.5 54.5t51.5 131.5q0 74 -51 129zM166 106l212 296q-36 23 -86 23q-80 0 -130 -58t-50 -125q0 -75 54 -136zM169 21l-22 -30h-63l42 59q-37 28 -61.5 81t-24.5 109q0 41 15.5 83.5t44.5 80t79 61.5t112 24q66 0 127 -32l23 32h63l-44 -62
q83 -73 83 -184q0 -114 -75.5 -183t-177.5 -69q-15 0 -27 0.5t-22.5 2.5t-17.5 3.5t-15.5 5.5t-12.5 5.5t-13.5 6t-12.5 6.5z" />
    <glyph glyph-name="ugrave.sc" unicode="&#xf7f9;" horiz-adv-x="503" 
d="M51 483h67v-273q0 -79 38.5 -116t94.5 -37q61 0 97.5 36.5t36.5 116.5v273h67v-267q0 -111 -52.5 -168t-147.5 -57q-93 0 -147 57.5t-54 167.5v267zM123 686h90l89 -157h-44z" />
    <glyph glyph-name="uacute.sc" unicode="&#xf7fa;" horiz-adv-x="503" 
d="M51 483h67v-273q0 -79 38.5 -116t94.5 -37q61 0 97.5 36.5t36.5 116.5v273h67v-267q0 -111 -52.5 -168t-147.5 -57q-93 0 -147 57.5t-54 167.5v267zM380 686l-134 -157h-44l88 157h90z" />
    <glyph glyph-name="ucircumflex.sc" unicode="&#xf7fb;" horiz-adv-x="503" 
d="M51 483h67v-273q0 -79 38.5 -116t94.5 -37q61 0 97.5 36.5t36.5 116.5v273h67v-267q0 -111 -52.5 -168t-147.5 -57q-93 0 -147 57.5t-54 167.5v267zM290 686l100 -157h-47l-92 98l-92 -98h-46l100 157h77z" />
    <glyph glyph-name="udieresis.sc" unicode="&#xf7fc;" horiz-adv-x="503" 
d="M51 483h67v-273q0 -79 38.5 -116t94.5 -37q61 0 97.5 36.5t36.5 116.5v273h67v-267q0 -111 -52.5 -168t-147.5 -57q-93 0 -147 57.5t-54 167.5v267zM159 652q19 0 32 -13t13 -32t-13 -32t-32 -13t-32 13t-13 32t13 32t32 13zM344 652q19 0 32 -13t13 -32t-13 -32t-32 -13
t-32 13t-13 32t13 32t32 13z" />
    <glyph glyph-name="yacute.sc" unicode="&#xf7fd;" horiz-adv-x="439" 
d="M5 483h80l134 -192l135 192h80l-182 -255v-228h-67v228zM348 686l-134 -157h-44l88 157h90z" />
    <glyph glyph-name="thorn.sc" unicode="&#xf7fe;" horiz-adv-x="375" 
d="M59 0v483h67v-105h58q86 0 129 -37.5t43 -98.5q0 -136 -180 -136h-50v-106h-67zM126 318v-152h50q58 0 83 18t25 59q0 38 -23 56.5t-85 18.5h-50z" />
    <glyph glyph-name="ydieresis.sc" unicode="&#xf7ff;" horiz-adv-x="439" 
d="M5 483h80l134 -192l135 192h80l-182 -255v-228h-67v228zM127 652q19 0 32 -13t13 -32t-13 -32t-32 -13t-32 13t-13 32t13 32t32 13zM312 652q19 0 32 -13t13 -32t-13 -32t-32 -13t-32 13t-13 32t13 32t32 13z" />
    <glyph glyph-name="_569" horiz-adv-x="0" 
 />
    </font>
</defs>
</svg>
